Korn – Live At The Hollywood Palladium




No Cover available

Artist: Korn
Year: 2012
Genre: Metal
Notes: Discogs
Add. Notes:
Watch Songs on: YouTube
Cover incl.: Yes
Encoder: FLAC
Bitrate: ~700 kBit/s (44.1 kHz/16 Bit/s)
Log & Cue incl.: Yes
Size: 399,3 MB
Password: “slam” (without ” “)


All Downloads/Hosters are compatible

Download 1
KatFile.com
Turbobit.net
FileFactory.com
Rapidgator.net
Download 2
KatFile.com
Turbobit.net
FileFactory.com
Rapidgator.net

Tracklist:

1 - Get Up! - 4:45
2 - Kill Mercy Within - 3:38
3 - Illuminati - 4:00
4 - Chaos Lives In Everything - 4:00
5 - My Wall - 3:30
6 - Way Too Far - 3:53
7 - Narcissistic Cannibal - 3:39
8 - Here To Stay - 4:36
9 - Freak On A Leash - 4:47
10 - Falling Away From Me - 5:50
11 - Predictable - 4:18
12 - Another Brick In The Wall - 11:47
13 - Shoots And Ladders - 4:17
14 - One - 1:03
15 - Got The Life - 3:52
16 - Blind - 6:30

EAC-Log, CUE-Sheed & NFO:

Click to open spoiler
Exact Audio Copy V1.3 from 2. September 2016

EAC extraction logfile from 17. November 2016, 20:38

Korn / Live At The Hollywood Palladium

Used drive : ATAPI iHBS112 2 Adapter: 1 ID: 0

Read mode : Secure
Utilize accurate stream : Yes
Defeat audio cache : Yes
Make use of C2 pointers : No

Read offset correction : 6
Overread into Lead-In and Lead-Out : No
Fill up missing offset samples with silence : Yes
Delete leading and trailing silent blocks : No
Null samples used in CRC calculations : Yes
Used interface : Native Win32 interface for Win NT & 2000

Used output format : Internal WAV Routines
Sample format : 44.100 Hz; 16 Bit; Stereo

TOC of the extracted CD

Track | Start | Length | Start sector | End sector
———————————————————
1 | 0:00.00 | 4:45.57 | 0 | 21431
2 | 4:45.57 | 3:38.21 | 21432 | 37802
3 | 8:24.03 | 4:00.09 | 37803 | 55811
4 | 12:24.12 | 4:00.43 | 55812 | 73854
5 | 16:24.55 | 3:30.44 | 73855 | 89648
6 | 19:55.24 | 3:53.12 | 89649 | 107135
7 | 23:48.36 | 3:39.43 | 107136 | 123603
8 | 27:28.04 | 4:36.18 | 123604 | 144321
9 | 32:04.22 | 4:47.05 | 144322 | 165851
10 | 36:51.27 | 5:50.06 | 165852 | 192107
11 | 42:41.33 | 4:18.34 | 192108 | 211491
12 | 46:59.67 | 11:47.64 | 211492 | 264580
13 | 58:47.56 | 4:17.22 | 264581 | 283877
14 | 63:05.03 | 1:03.51 | 283878 | 288653
15 | 64:08.54 | 3:52.71 | 288654 | 306124
16 | 68:01.50 | 6:30.46 | 306125 | 335420

Range status and errors

Selected range

Filename C:\lossless\zhen01\Korn – Live At The Hollywood Palladium.wav

Peak level 99.9 %
Extraction speed 8.1 X
Range quality 99.9 %
Test CRC 98AFB6D0
Copy CRC 98AFB6D0
Copy OK

No errors occurred

AccurateRip summary

Track 1 accurately ripped (confidence 4) [D586ADD6] (AR v2)
Track 2 accurately ripped (confidence 4) [7DADA1B6] (AR v2)
Track 3 accurately ripped (confidence 4) [0E976DA0] (AR v2)
Track 4 accurately ripped (confidence 4) [70DFEC6C] (AR v2)
Track 5 accurately ripped (confidence 4) [864F4D8B] (AR v2)
Track 6 accurately ripped (confidence 4) [1D94DEFA] (AR v2)
Track 7 accurately ripped (confidence 4) [49A6F595] (AR v2)
Track 8 accurately ripped (confidence 4) [D19F5664] (AR v2)
Track 9 accurately ripped (confidence 4) [8E1489B8] (AR v2)
Track 10 accurately ripped (confidence 4) [DF1EEBF8] (AR v2)
Track 11 accurately ripped (confidence 4) [7816CB3D] (AR v2)
Track 12 accurately ripped (confidence 4) [13E682C7] (AR v2)
Track 13 accurately ripped (confidence 4) [4FCFB1BD] (AR v2)
Track 14 accurately ripped (confidence 4) [9E5F250F] (AR v2)
Track 15 accurately ripped (confidence 4) [16D4FD51] (AR v2)
Track 16 accurately ripped (confidence 4) [3C24BFDA] (AR v2)

All tracks accurately ripped

End of status report

—- CUETools DB Plugin V2.1.6

[CTDB TOCID: dpF47RX__j8htTRDTGwvv_l74Qc-] found
Submit result: dpF47RX__j8htTRDTGwvv_l74Qc- has been confirmed
Track | CTDB Status
1 | (20/20) Accurately ripped
2 | (20/20) Accurately ripped
3 | (19/20) Accurately ripped
4 | (20/20) Accurately ripped
5 | (20/20) Accurately ripped
6 | (20/20) Accurately ripped
7 | (20/20) Accurately ripped
8 | (20/20) Accurately ripped
9 | (20/20) Accurately ripped
10 | (20/20) Accurately ripped
11 | (20/20) Accurately ripped
12 | (20/20) Accurately ripped
13 | (20/20) Accurately ripped
14 | (20/20) Accurately ripped
15 | (18/20) Accurately ripped
16 | (18/20) Accurately ripped

==== Log checksum C59F7E40BD1650A8444D636E65D8BB72E128212DD4BADD8617F218BF66DE9753 ====

REM GENRE “Nu Metal”
REM DATE 2012
REM DISCID EE117810
REM COMMENT “ExactAudioCopy v1.3”
PERFORMER “Korn”
TITLE “Live At The Hollywood Palladium”
FILE “Korn – Live At The Hollywood Palladium.flac” WAVE
TRACK 01 AUDIO
TITLE “Get Up!”
PERFORMER “Korn”
ISRC USSE91232785
FLAGS DCP
INDEX 01 00:00:00
TRACK 02 AUDIO
TITLE “Kill Mercy Within”
PERFORMER “Korn”
ISRC USSE91232786
FLAGS DCP
INDEX 01 04:45:57
TRACK 03 AUDIO
TITLE “Illuminati”
PERFORMER “Korn”
ISRC USSE91232787
FLAGS DCP
INDEX 01 08:24:03
TRACK 04 AUDIO
TITLE “Chaos Lives In Everything”
PERFORMER “Korn”
ISRC USSE91232788
FLAGS DCP
INDEX 01 12:24:12
TRACK 05 AUDIO
TITLE “My Wall”
PERFORMER “Korn”
ISRC USSE91232789
FLAGS DCP
INDEX 01 16:24:55
TRACK 06 AUDIO
TITLE “Way Too Far”
PERFORMER “Korn”
ISRC USSE91232790
FLAGS DCP
INDEX 01 19:55:24
TRACK 07 AUDIO
TITLE “Narcissistic Cannibal”
PERFORMER “Korn”
ISRC USSE91232791
FLAGS DCP
INDEX 01 23:48:36
TRACK 08 AUDIO
TITLE “Here To Stay”
PERFORMER “Korn”
ISRC USSE91232792
FLAGS DCP
INDEX 01 27:28:04
TRACK 09 AUDIO
TITLE “Freak On A Leash”
PERFORMER “Korn”
ISRC USSE91232793
FLAGS DCP
INDEX 01 32:04:22
TRACK 10 AUDIO
TITLE “Falling Away From Me”
PERFORMER “Korn”
ISRC USSE91232794
FLAGS DCP
INDEX 01 36:51:27
TRACK 11 AUDIO
TITLE “Predictable”
PERFORMER “Korn”
ISRC USSE91232795
FLAGS DCP
INDEX 01 42:41:33
TRACK 12 AUDIO
TITLE “Another Brick In The Wall (Pink Floyd Cover)”
PERFORMER “Korn”
ISRC USSE91232796
FLAGS DCP
INDEX 01 46:59:67
TRACK 13 AUDIO
TITLE “Shoots And Ladders”
PERFORMER “Korn”
ISRC USSE91232797
FLAGS DCP
INDEX 01 58:47:56
TRACK 14 AUDIO
TITLE “One (Metallica Cover)”
PERFORMER “Korn”
ISRC USSE91232798
FLAGS DCP
INDEX 01 63:05:03
TRACK 15 AUDIO
TITLE “Got The Life”
PERFORMER “Korn”
ISRC USSE91232799
FLAGS DCP
INDEX 01 64:08:54
TRACK 16 AUDIO
TITLE “Blind”
PERFORMER “Korn”
ISRC USSE91232800
FLAGS DCP
INDEX 01 68:01:50


Leave a Reply

Your email address will not be published. Required fields are marked *

Enter the text from the image below
 

This site uses Akismet to reduce spam. Learn how your comment data is processed.