Korn – Korn




Artist: Korn
Year: 1994
Genre: Metal
Notes: Discogs
Add. Notes:
Encoder: FLAC
Bitrate: ~900 kBit/s (VBR)
Size: 474,52 MB
Password: “slam” (without ” “)


Crypted via FileCrypt.cc:

.

Crypted via Relink.to:

Tracklist:

1 - Blind - 4:19
2 - Ball Tongue - 4:29
3 - Need To - 4:02
4 - Clown - 4:36
5 - Divine - 2:51
6 - Faget - 5:50
7 - Shoots And Ladders - 5:22
8 - Predictable - 4:32
9 - Fake - 4:51
10 - Lies - 3:22
11 - Helmet In The Bush - 4:02
12 - Daddy - 14:05
13 - Michael And Geri - 3:26

EAC-Log, CUE-Sheed & NFO:

Click to open spoiler
Exact Audio Copy V1.0 beta 4 from 7. December 2014

EAC extraction logfile from 20. March 2015, 21:44

Korn / Korn

Used drive : ATAPI iHBS112 2 Adapter: 1 ID: 0

Read mode : Secure
Utilize accurate stream : Yes
Defeat audio cache : Yes
Make use of C2 pointers : No

Read offset correction : 6
Overread into Lead-In and Lead-Out : No
Fill up missing offset samples with silence : Yes
Delete leading and trailing silent blocks : No
Null samples used in CRC calculations : Yes
Used interface : Native Win32 interface for Win NT & 2000

Used output format : Internal WAV Routines
Sample format : 44.100 Hz; 16 Bit; Stereo

TOC of the extracted CD

Track | Start | Length | Start sector | End sector
———————————————————
1 | 0:00.00 | 4:19.22 | 0 | 19446
2 | 4:19.22 | 4:29.33 | 19447 | 39654
3 | 8:48.55 | 4:01.57 | 39655 | 57786
4 | 12:50.37 | 4:36.50 | 57787 | 78536
5 | 17:27.12 | 2:51.03 | 78537 | 91364
6 | 20:18.15 | 5:50.45 | 91365 | 117659
7 | 26:08.60 | 5:22.22 | 117660 | 141831
8 | 31:31.07 | 4:32.43 | 141832 | 162274
9 | 36:03.50 | 4:51.45 | 162275 | 184144
10 | 40:55.20 | 3:22.30 | 184145 | 199324
11 | 44:17.50 | 4:02.50 | 199325 | 217524
12 | 48:20.25 | 14:05.07 | 217525 | 280906
13 | 62:25.32 | 3:26.43 | 280907 | 296399

Range status and errors

Selected range

Filename C:\lossless\zhen01\Korn – Korn.wav

Peak level 100.0 %
Extraction speed 4.2 X
Range quality 99.8 %
Test CRC 6F5BEB80
Copy CRC 6F5BEB80
Copy OK

No errors occurred

AccurateRip summary

Track 1 accurately ripped (confidence 80) [8A1BA340] (AR v2)
Track 2 accurately ripped (confidence 81) [620DECCE] (AR v2)
Track 3 accurately ripped (confidence 81) [B530D031] (AR v2)
Track 4 accurately ripped (confidence 81) [52892323] (AR v2)
Track 5 accurately ripped (confidence 81) [6F8706A6] (AR v2)
Track 6 accurately ripped (confidence 81) [28AD3F39] (AR v2)
Track 7 accurately ripped (confidence 81) [0F33E32A] (AR v2)
Track 8 accurately ripped (confidence 80) [30ED767B] (AR v2)
Track 9 accurately ripped (confidence 81) [FBF4DD76] (AR v2)
Track 10 accurately ripped (confidence 81) [49BB0576] (AR v2)
Track 11 accurately ripped (confidence 81) [2C9563A3] (AR v2)
Track 12 accurately ripped (confidence 80) [E27CF716] (AR v2)
Track 13 accurately ripped (confidence 81) [6AADAD85] (AR v2)

All tracks accurately ripped

End of status report

—- CUETools DB Plugin V2.1.4

[CTDB TOCID: SIS05pVy9ZA3weiIqO72JR7yMEc-] found
Submit result: already submitted
Track | CTDB Status
1 | (240/240) Accurately ripped
2 | (239/240) Accurately ripped
3 | (240/240) Accurately ripped
4 | (240/240) Accurately ripped
5 | (239/240) Accurately ripped
6 | (230/240) Accurately ripped, or (9/240) differs in 102 samples @03:43:14,03:43:29-03:43:31
7 | (239/240) Accurately ripped
8 | (240/240) Accurately ripped
9 | (240/240) Accurately ripped
10 | (240/240) Accurately ripped
11 | (240/240) Accurately ripped
12 | (239/240) Accurately ripped
13 | (211/240) Accurately ripped, or (29/240) differs in 833 samples @00:27:20-00:27:21,01:30:14-01:30:15,02:29:61-02:29:63

==== Log checksum 493E5B96881FAB336CE00D1E3713BEF206A215F6C9B9F8353EE158165515FA9C ====

REM GENRE “Nu Metal”
REM DATE 1994
REM DISCID B00F700D
REM COMMENT “ExactAudioCopy v1.0b3”
PERFORMER “Korn”
TITLE “Korn”
FILE “Korn – Korn.flac” WAVE
TRACK 01 AUDIO
TITLE “Blind”
PERFORMER “Korn”
INDEX 01 00:00:00
TRACK 02 AUDIO
TITLE “Ball Tongue”
PERFORMER “Korn”
INDEX 01 04:19:22
TRACK 03 AUDIO
TITLE “Need To”
PERFORMER “Korn”
INDEX 01 08:48:55
TRACK 04 AUDIO
TITLE “Clown”
PERFORMER “Korn”
INDEX 00 12:49:25
INDEX 01 12:50:37
TRACK 05 AUDIO
TITLE “Divine”
PERFORMER “Korn”
INDEX 00 17:27:02
INDEX 01 17:27:12
TRACK 06 AUDIO
TITLE “Faget”
PERFORMER “Korn”
INDEX 00 20:17:35
INDEX 01 20:18:15
TRACK 07 AUDIO
TITLE “Shoots And Ladders”
PERFORMER “Korn”
INDEX 01 26:08:60
TRACK 08 AUDIO
TITLE “Predictable”
PERFORMER “Korn”
INDEX 01 31:31:07
TRACK 09 AUDIO
TITLE “Fake”
PERFORMER “Korn”
INDEX 00 36:03:02
INDEX 01 36:03:50
TRACK 10 AUDIO
TITLE “Lies”
PERFORMER “Korn”
INDEX 01 40:55:20
TRACK 11 AUDIO
TITLE “Helmet In The Bush”
PERFORMER “Korn”
INDEX 01 44:17:50
TRACK 12 AUDIO
TITLE “Daddy”
PERFORMER “Korn”
INDEX 01 48:20:25
TRACK 13 AUDIO
TITLE “Hidden Track – The Argument (Michael And Geri)”
PERFORMER “Korn”
INDEX 00 57:55:55
INDEX 01 62:25:32

Leave a Reply

Your email address will not be published. Required fields are marked *

This site uses Akismet to reduce spam. Learn how your comment data is processed.