Korn – Korn III: Remember Who You Are (Special Edition)




Artist: Korn
Year: 2010
Genre: Metal
Notes: Discogs
Add. Notes: Special Edition
Encoder: FLAC
Bitrate: ~900 kBit/s (44.1 kHz/16 Bit/s)
Size: 499,01 MB
Password: “slam” (without ” “)


http://www.share-online.biz/dl/U540RDPPL4
http://www.share-online.biz/dl/KB70RDPPKD
https://rapidgator.net/file/63797f05830dae70072c1bf3833aaa90/K2010-K3-Rem-SE.part1.rar
https://rapidgator.net/file/2c3abea0c91671961381744c7f9d5496/K2010-K3-Rem-SE.part2.rar

Onlinestatus: Turbobit.net Rapidgator.net

Tracklist:

01 - Uber-Time - 1:28
02 - Oildale (Leave Me Alone) - 4:43
03 - Pop A Pill - 3:59
04 - Fear Is A Place To Live - 3:09
05 - Move On - 3:48
06 - Lead The Parade - 4:24
07 - Let The Guilt Go - 3:56
08 - The Past - 5:05
09 - Never Around - 5:29
10 - Are You Ready To Live? - 3:58
11 - Holding All These Lies - 4:38
Bonus Tracks
12 - Trapped Underneath The Stairs - 4:20
13 - People Pleaser - 7:05
14 - Blind (Live) - 5:28

EAC-Log, CUE-Sheed & NFO:

Click to open spoiler
Exact Audio Copy V1.0 beta 4 from 7. December 2014

EAC extraction logfile from 21. March 2015, 12:30

Korn / Korn III Remember Who You Are

Used drive : ATAPI iHBS112 2 Adapter: 1 ID: 0

Read mode : Secure
Utilize accurate stream : Yes
Defeat audio cache : Yes
Make use of C2 pointers : No

Read offset correction : 6
Overread into Lead-In and Lead-Out : No
Fill up missing offset samples with silence : Yes
Delete leading and trailing silent blocks : No
Null samples used in CRC calculations : Yes
Used interface : Native Win32 interface for Win NT & 2000

Used output format : Internal WAV Routines
Sample format : 44.100 Hz; 16 Bit; Stereo

TOC of the extracted CD

Track | Start | Length | Start sector | End sector
———————————————————
1 | 0:00.00 | 1:28.42 | 0 | 6641
2 | 1:28.42 | 4:43.07 | 6642 | 27873
3 | 6:11.49 | 3:59.38 | 27874 | 45836
4 | 10:11.12 | 3:09.23 | 45837 | 60034
5 | 13:20.35 | 3:48.04 | 60035 | 77138
6 | 17:08.39 | 4:24.63 | 77139 | 97001
7 | 21:33.27 | 3:56.07 | 97002 | 114708
8 | 25:29.34 | 5:05.38 | 114709 | 137621
9 | 30:34.72 | 5:29.59 | 137622 | 162355
10 | 36:04.56 | 3:58.49 | 162356 | 180254
11 | 40:03.30 | 4:38.38 | 180255 | 201142
12 | 44:41.68 | 4:20.42 | 201143 | 220684
13 | 49:02.35 | 7:05.13 | 220685 | 252572
14 | 56:07.48 | 5:28.38 | 252573 | 277210

Range status and errors

Selected range

Filename C:\lossless\zhen01\Korn – Korn III Remember Who You Are.wav

Peak level 100.0 %
Extraction speed 9.1 X
Range quality 99.9 %
Test CRC 476370C8
Copy CRC 476370C8
Copy OK

No errors occurred

AccurateRip summary

Track 1 accurately ripped (confidence 42) [399EECC8] (AR v2)
Track 2 accurately ripped (confidence 41) [5D2C1059] (AR v2)
Track 3 accurately ripped (confidence 40) [29902D88] (AR v2)
Track 4 accurately ripped (confidence 41) [D710E2B5] (AR v2)
Track 5 accurately ripped (confidence 41) [08F7ADA7] (AR v2)
Track 6 accurately ripped (confidence 41) [F5C5891F] (AR v2)
Track 7 accurately ripped (confidence 41) [A56D5CE2] (AR v2)
Track 8 accurately ripped (confidence 41) [AC3F7814] (AR v2)
Track 9 accurately ripped (confidence 41) [15197E8B] (AR v2)
Track 10 accurately ripped (confidence 41) [935CB22A] (AR v2)
Track 11 accurately ripped (confidence 41) [221E0F28] (AR v2)
Track 12 accurately ripped (confidence 41) [0BCE1614] (AR v2)
Track 13 accurately ripped (confidence 40) [6781203B] (AR v2)
Track 14 accurately ripped (confidence 39) [C4B1D57A] (AR v2)

All tracks accurately ripped

End of status report

—- CUETools DB Plugin V2.1.4

[CTDB TOCID: CMR6wwkVh96IDL3nhaYVoj9uiHs-] found
Submit result: already submitted
Track | CTDB Status
1 | (72/72) Accurately ripped
2 | (72/72) Accurately ripped
3 | (72/72) Accurately ripped
4 | (72/72) Accurately ripped
5 | (72/72) Accurately ripped
6 | (72/72) Accurately ripped
7 | (72/72) Accurately ripped
8 | (71/72) Accurately ripped
9 | (70/72) Accurately ripped
10 | (71/72) Accurately ripped
11 | (71/72) Accurately ripped
12 | (71/72) Accurately ripped
13 | (72/72) Accurately ripped
14 | (71/72) Accurately ripped

==== Log checksum 0F6431A61A66F120C53F121230D6C36CC2AA7F6E12452594A5A7E41B8ED93462 ====

REM GENRE “Nu Metal”
REM DATE 2010
REM DISCID B20E700E
REM COMMENT “ExactAudioCopy v1.0b3”
CATALOG 0016861775759
PERFORMER “Korn”
TITLE “Korn III: Remember Who You Are”
FILE “Korn – Korn III Remember Who You Are.flac” WAVE
TRACK 01 AUDIO
TITLE “Uber-Time”
PERFORMER “Korn”
ISRC NLA321090031
FLAGS DCP
INDEX 01 00:00:00
TRACK 02 AUDIO
TITLE “Oildale (Leave Me Alone)”
PERFORMER “Korn”
ISRC NLA321089946
FLAGS DCP
INDEX 01 01:28:42
TRACK 03 AUDIO
TITLE “Pop A Pill”
PERFORMER “Korn”
ISRC NLA321089957
FLAGS DCP
INDEX 01 06:11:49
TRACK 04 AUDIO
TITLE “Fear Is A Place To Live”
PERFORMER “Korn”
ISRC NLA321089956
FLAGS DCP
INDEX 01 10:11:12
TRACK 05 AUDIO
TITLE “Move On”
PERFORMER “Korn”
ISRC NLA321089958
FLAGS DCP
INDEX 01 13:20:35
TRACK 06 AUDIO
TITLE “Lead The Parade”
PERFORMER “Korn”
ISRC NLA321089959
FLAGS DCP
INDEX 01 17:08:39
TRACK 07 AUDIO
TITLE “Let The Guilt Go”
PERFORMER “Korn”
ISRC NLA321089954
FLAGS DCP
INDEX 01 21:33:27
TRACK 08 AUDIO
TITLE “The Past”
PERFORMER “Korn”
ISRC NLA321089952
FLAGS DCP
INDEX 01 25:29:34
TRACK 09 AUDIO
TITLE “Never Around”
PERFORMER “Korn”
ISRC NLA321089955
FLAGS DCP
INDEX 01 30:34:72
TRACK 10 AUDIO
TITLE “Are You Ready To Live?”
PERFORMER “Korn”
ISRC NLA321089951
FLAGS DCP
INDEX 01 36:04:56
TRACK 11 AUDIO
TITLE “Holding All These Lies”
PERFORMER “Korn”
ISRC NLA321089953
FLAGS DCP
INDEX 01 40:03:30
TRACK 12 AUDIO
TITLE “Trapped Underneath The Stairs”
PERFORMER “Korn”
ISRC NLA321089961
FLAGS DCP
INDEX 01 44:41:68
TRACK 13 AUDIO
TITLE “People Pleaser”
PERFORMER “Korn”
ISRC NLA321089960
FLAGS DCP
INDEX 01 49:02:35
TRACK 14 AUDIO
TITLE “Blind (Live)”
PERFORMER “Korn”
ISRC NLA321090032
FLAGS DCP
INDEX 01 56:07:48

Leave a Reply

Your email address will not be published. Required fields are marked *

This site uses Akismet to reduce spam. Learn how your comment data is processed.