Korn – Greatest Hits Vol. 1 (Japanese Edition)




Artist: Korn
Year: 2004
Genre: Metal
Notes: Discogs
Add. Notes: Japanese Edition
Encoder: FLAC
Bitrate: ~1000 kBit/s (VBR)
Size: 680,74 MB
Password: “slam” (without ” “)


Crypted via FileCrypt.cc:

.

Crypted via Relink.to:

Tracklist:

1 - Word Up! 	
2 - Another Brick In The Wall (Parts 1, 2, 3) 	
3 - Y'All Want A Single 	
4 - Right Now 	
5 - Did My Time 	
6 - Alone I Break 	
7 - Here To Stay 	
8 - Trash 	
9 - Somebody Someone 	
10 - Make Me Bad 	
11 - Falling Away From Me 	
12 - Got The Life 	
13 - Freak On A Leash 	
14 - Twist 	
15 - A.D.I.D.A.S. 	
16 - Clown 	
17 - Shoots And Ladders 	
18 - Blind 	
19 - Freak On A Leash (Dante Ross Mix)

EAC-Log, CUE-Sheed & NFO:

Click to open spoiler
Exact Audio Copy V1.0 beta 4 from 7. December 2014

EAC extraction logfile from 21. March 2015, 0:31

Korn / Greatest Hits Vol. 1

Used drive : ATAPI iHBS112 2 Adapter: 1 ID: 0

Read mode : Secure
Utilize accurate stream : Yes
Defeat audio cache : Yes
Make use of C2 pointers : No

Read offset correction : 6
Overread into Lead-In and Lead-Out : No
Fill up missing offset samples with silence : Yes
Delete leading and trailing silent blocks : No
Null samples used in CRC calculations : Yes
Used interface : Native Win32 interface for Win NT & 2000

Used output format : Internal WAV Routines
Sample format : 44.100 Hz; 16 Bit; Stereo

TOC of the extracted CD

Track | Start | Length | Start sector | End sector
———————————————————
1 | 0:00.00 | 2:53.19 | 0 | 12993
2 | 2:53.19 | 7:09.50 | 12994 | 45218
3 | 10:02.69 | 3:20.36 | 45219 | 60254
4 | 13:23.30 | 3:13.25 | 60255 | 74754
5 | 16:36.55 | 4:07.67 | 74755 | 93346
6 | 20:44.47 | 4:17.49 | 93347 | 112670
7 | 25:02.21 | 4:31.61 | 112671 | 133056
8 | 29:34.07 | 3:28.14 | 133057 | 148670
9 | 33:02.21 | 3:50.74 | 148671 | 165994
10 | 36:53.20 | 3:56.53 | 165995 | 183747
11 | 40:49.73 | 4:31.58 | 183748 | 204130
12 | 45:21.56 | 3:48.36 | 204131 | 221266
13 | 49:10.17 | 4:17.68 | 221267 | 240609
14 | 53:28.10 | 0:50.71 | 240610 | 244430
15 | 54:19.06 | 2:35.18 | 244431 | 256073
16 | 56:54.24 | 4:38.16 | 256074 | 276939
17 | 61:32.40 | 5:23.39 | 276940 | 301203
18 | 66:56.04 | 4:20.74 | 301204 | 320777
19 | 71:17.03 | 4:47.38 | 320778 | 342340

Range status and errors

Selected range

Filename C:\lossless\zhen01\Korn – Greatest Hits Vol. 1.wav

Peak level 100.0 %
Extraction speed 6.9 X
Range quality 99.9 %
Test CRC 4D6E2C9F
Copy CRC 4D6E2C9F
Copy OK

No errors occurred

AccurateRip summary

Track 1 accurately ripped (confidence 5) [1BD08E02] (AR v2)
Track 2 accurately ripped (confidence 5) [2619DABC] (AR v2)
Track 3 accurately ripped (confidence 5) [97476CF9] (AR v2)
Track 4 accurately ripped (confidence 5) [0F4F3C7C] (AR v2)
Track 5 accurately ripped (confidence 5) [B5438968] (AR v2)
Track 6 accurately ripped (confidence 5) [0398CAF9] (AR v2)
Track 7 accurately ripped (confidence 5) [2F144512] (AR v2)
Track 8 accurately ripped (confidence 5) [14208180] (AR v2)
Track 9 accurately ripped (confidence 5) [EED8F695] (AR v2)
Track 10 accurately ripped (confidence 5) [79A62AB1] (AR v2)
Track 11 accurately ripped (confidence 5) [C769D0C6] (AR v2)
Track 12 accurately ripped (confidence 5) [ED44C7C2] (AR v2)
Track 13 accurately ripped (confidence 5) [B8588401] (AR v2)
Track 14 accurately ripped (confidence 5) [46F88869] (AR v2)
Track 15 accurately ripped (confidence 5) [09A20455] (AR v2)
Track 16 accurately ripped (confidence 5) [9FE5E815] (AR v2)
Track 17 accurately ripped (confidence 5) [21A00C8B] (AR v2)
Track 18 accurately ripped (confidence 5) [58F8D73F] (AR v2)
Track 19 accurately ripped (confidence 5) [CFC423BE] (AR v2)

All tracks accurately ripped

End of status report

—- CUETools DB Plugin V2.1.4

[CTDB TOCID: PeILegWP6D5f4VTA5aoEHSCjYEs-] found
Submit result: already submitted
Track | CTDB Status
1 | (11/12) Accurately ripped
2 | (12/12) Accurately ripped
3 | (11/12) Accurately ripped
4 | (11/12) Accurately ripped
5 | (11/12) Accurately ripped
6 | (11/12) Accurately ripped
7 | (11/12) Accurately ripped
8 | (12/12) Accurately ripped
9 | (11/12) Accurately ripped
10 | (12/12) Accurately ripped
11 | (11/12) Accurately ripped
12 | (12/12) Accurately ripped
13 | (12/12) Accurately ripped
14 | (12/12) Accurately ripped
15 | (12/12) Accurately ripped
16 | (12/12) Accurately ripped
17 | (12/12) Accurately ripped
18 | (12/12) Accurately ripped
19 | (11/12) Accurately ripped

==== Log checksum 267B9752BB06E96943A828343A183078FEB748BE97B211F5AF1F5D1BEF78B5B1 ====

REM GENRE “Nu Metal”
REM DATE 2004
REM DISCID 1211D413
REM COMMENT “ExactAudioCopy v1.0b3”
PERFORMER “Korn”
TITLE “Greatest Hits Vol. 1”
FILE “Korn – Greatest Hits Vol. 1.flac” WAVE
TRACK 01 AUDIO
TITLE “Word Up!”
PERFORMER “Korn”
ISRC USSM10411917
INDEX 01 00:00:00
TRACK 02 AUDIO
TITLE “Another Brick In The Wall (Parts 1, 2, 3)”
PERFORMER “Korn”
ISRC USSM10412369
INDEX 01 02:53:19
TRACK 03 AUDIO
TITLE “Y’all Want A Single”
PERFORMER “Korn”
ISRC USSM10313528
INDEX 00 10:01:48
INDEX 01 10:02:69
TRACK 04 AUDIO
TITLE “Right Now”
PERFORMER “Korn”
ISRC USSM10312780
INDEX 01 13:23:30
TRACK 05 AUDIO
TITLE “Did My Time”
PERFORMER “Korn”
ISRC USSM10308038
INDEX 01 16:36:55
TRACK 06 AUDIO
TITLE “Alone I Break”
PERFORMER “Korn”
ISRC USSM10200777
INDEX 00 20:43:37
INDEX 01 20:44:47
TRACK 07 AUDIO
TITLE “Here To Stay”
PERFORMER “Korn”
ISRC USSM10200769
INDEX 01 25:02:21
TRACK 08 AUDIO
TITLE “Trash”
PERFORMER “Korn”
ISRC USSM19922480
INDEX 01 29:34:07
TRACK 09 AUDIO
TITLE “Somebody Someone”
PERFORMER “Korn”
ISRC USSM19922488
INDEX 01 33:02:21
TRACK 10 AUDIO
TITLE “Make Me Bad”
PERFORMER “Korn”
ISRC USSM19922483
INDEX 01 36:53:20
TRACK 11 AUDIO
TITLE “Falling Away From Me”
PERFORMER “Korn”
ISRC USSM19922479
INDEX 00 40:48:69
INDEX 01 40:49:73
TRACK 12 AUDIO
TITLE “Got The Life”
PERFORMER “Korn”
ISRC USSM19801763
INDEX 01 45:21:56
TRACK 13 AUDIO
TITLE “Freak On A Leash”
PERFORMER “Korn”
ISRC USSM19801755
INDEX 01 49:10:17
TRACK 14 AUDIO
TITLE “Twist”
PERFORMER “Korn”
ISRC USSM19602497
INDEX 01 53:28:10
TRACK 15 AUDIO
TITLE “A.D.I.D.A.S.”
PERFORMER “Korn”
ISRC USSM19602502
INDEX 01 54:19:06
TRACK 16 AUDIO
TITLE “Clown”
PERFORMER “Korn”
ISRC USSM10024534
INDEX 00 56:53:01
INDEX 01 56:54:24
TRACK 17 AUDIO
TITLE “Shoots And Ladders”
PERFORMER “Korn”
ISRC USSM19401099
INDEX 01 61:32:40
TRACK 18 AUDIO
TITLE “Blind”
PERFORMER “Korn”
ISRC USSM10022054
INDEX 01 66:56:04
TRACK 19 AUDIO
TITLE “Freak On A Leash (Dante Ross Mix)”
PERFORMER “Korn”
ISRC USSM19806361
INDEX 00 71:06:32
INDEX 01 71:17:03

Leave a Reply

Your email address will not be published. Required fields are marked *

This site uses Akismet to reduce spam. Learn how your comment data is processed.