Korn – Greatest Hits (2 CD) (Bootleg)




Artist: Korn
Year: 2008
Genre: Rock
Notes: Discogs
Add. Notes: Bootleg
Encoder: FLAC
Bitrate: ~1000 kBit/s (VBR)
Size: 1151,98 MB
Password: “slam” (without ” “)


Crypted via FileCrypt.cc:

.

Crypted via Relink.to:

Tracklist:

1-1 - Shoots And Ladders - 5:24
1-2 - Evolution - 3:39
1-3 - Politics - 3:18
1-4 - Did My Time - 4:06
1-5 - Hold On - 3:05
1-6 - Got The Life - 3:45
1-7 - Twisted Transistor - 4:14
1-8 - Here To Stay - 4:32
1-9 - Falling Away From Me - 4:29
1-10 - A.D.I.D.A.S. - 2:34
1-11 - Counting On Me - 4:49
1-12 - Souvenir - 3:51
1-13 - All In The Family - 4:48
1-14 - Trash - 3:26
1-15 - Right Now - 3:11
1-16 - Throw Me Away - 4:43
1-17 - Word Up! - 2:49
1-18 - Good God - 3:22
1-19 - Alone I Break - 4:16
1-20 - Love Song - 4:20
1-21 - Lowrider - 0:54
2-1 - Bitch We Got A Problem - 3:26
2-2 - Freak On A Leash - 4:17
2-3 - Coming Undone - 3:22
2-4 - Starting Over - 4:06
2-5 - Another Brick In The Wall - 7:02
2-6 - Everything I've Known - 3:38
2-7 - Innocent Bystander - 3:31
2-8 - Hey Daddy - 3:45
2-9 - Bottled Up Inside - 4:03
2-10 - Open Up - 6:19
2-11 - It's On - 4:32
2-12 - Alive - 4:33
2-13 - Hushabye - 3:56
2-14 - Make Me Bad - 3:55
2-15 - Thoughtless - 4:35
2-16 - Break Some Off - 2:38
2-17 - Ass Itch - 3:21
2-18 - Dead Bodies Everywhere - 4:48
2-19 - Somebody Someone - 3:46

EAC-Log, CUE-Sheed & NFO:

Click to open spoiler
Отчёт EAC об извлечении, выполненном 4. февраля 2010, 20:16 для диска:
Korn / Greatest Hits CD1

Дисковод: PIONEER DVD-RW DVR-112D Adapter: 3 ID: 1
Режим чтения: Достоверный (C2: нет, Точный поток: да, Отключение кэша: да)
Коррекция смещения при чтении: 48
Способность читать области Lead-in и Lead-out : Нет

Выходной формат: Внутренние WAV-операции
44.100 Гц; 16 бит; стерео
Смещение при сжатии: 0

Другие параметры:
Заполнение пропущенных сэмплов тишиной : Да
Удаление блоков с тишиной в начале и конце : Нет
Установленный внешний ASPI-интерфейс

Характеристики диапазона извлечения и сообщения об ошибках
Выбранный диапазон
Имя файла D:\Новые рипы CD\4февраля\Korn – Greatest Hits 2008 2CD\CD1\Korn – Greatest Hits CD1.wav

Пиковый уровень 67.5 %
Качество диапазона 100.0 %
CRC 63054C6E
Копирование… OK

Ошибок не произошло

Конец отчёта

Отчёт EAC об извлечении, выполненном 4. февраля 2010, 20:28 для диска:
Star Mark Greatest Hits CD2 / Korn

Дисковод: PIONEER DVD-RW DVR-112D Adapter: 3 ID: 1
Режим чтения: Достоверный (C2: нет, Точный поток: да, Отключение кэша: да)
Коррекция смещения при чтении: 48
Способность читать области Lead-in и Lead-out : Нет

Выходной формат: Внутренние WAV-операции
44.100 Гц; 16 бит; стерео
Смещение при сжатии: 0

Другие параметры:
Заполнение пропущенных сэмплов тишиной : Да
Удаление блоков с тишиной в начале и конце : Нет
Установленный внешний ASPI-интерфейс

Характеристики диапазона извлечения и сообщения об ошибках
Выбранный диапазон
Имя файла D:\Новые рипы CD\4февраля\Korn – Greatest Hits 2008 2CD\CD2\Star Mark Greatest Hits CD2 – Korn.wav

Пиковый уровень 67.3 %
Качество диапазона 100.0 %
CRC 822E9893
Копирование… OK

Ошибок не произошло

Конец отчёта

REM DISCID 2512B015
REM COMMENT “ExactAudioCopy v0.95b3”
PERFORMER “Korn”
TITLE “Greatest Hits CD1”
FILE “Korn – Greatest Hits CD1.wav” WAVE
TRACK 01 AUDIO
TITLE “Shoots And Ladders”
PERFORMER “Korn”
FLAGS DCP
INDEX 01 00:00:00
TRACK 02 AUDIO
TITLE “Evolution”
PERFORMER “Korn”
FLAGS DCP
INDEX 00 05:22:18
INDEX 01 05:24:18
TRACK 03 AUDIO
TITLE “Politics”
PERFORMER “Korn”
FLAGS DCP
INDEX 00 09:01:56
INDEX 01 09:03:56
TRACK 04 AUDIO
TITLE “Did My Time”
PERFORMER “Korn”
FLAGS DCP
INDEX 00 12:20:54
INDEX 01 12:22:54
TRACK 05 AUDIO
TITLE “Hold On”
PERFORMER “Korn”
FLAGS DCP
INDEX 00 16:26:55
INDEX 01 16:28:55
TRACK 06 AUDIO
TITLE “Got The Life”
PERFORMER “Korn”
FLAGS DCP
INDEX 00 19:31:62
INDEX 01 19:33:62
TRACK 07 AUDIO
TITLE “Twisted Transistor”
PERFORMER “Korn”
FLAGS DCP
INDEX 00 23:16:63
INDEX 01 23:18:63
TRACK 08 AUDIO
TITLE “Here To Stay”
PERFORMER “Korn”
FLAGS DCP
INDEX 00 27:30:70
INDEX 01 27:32:70
TRACK 09 AUDIO
TITLE “Falling Away From Me”
PERFORMER “Korn”
FLAGS DCP
INDEX 00 32:03:10
INDEX 01 32:05:10
TRACK 10 AUDIO
TITLE “A.D.I.D.A.S”
PERFORMER “Korn”
FLAGS DCP
INDEX 00 36:32:38
INDEX 01 36:34:38
TRACK 11 AUDIO
TITLE “Counting On Me”
PERFORMER “Korn”
FLAGS DCP
INDEX 00 39:07:19
INDEX 01 39:09:19
TRACK 12 AUDIO
TITLE “Souvenir”
PERFORMER “Korn”
FLAGS DCP
INDEX 00 43:57:05
INDEX 01 43:59:05
TRACK 13 AUDIO
TITLE “All in the Family”
PERFORMER “Korn”
FLAGS DCP
INDEX 00 47:49:03
INDEX 01 47:51:02
TRACK 14 AUDIO
TITLE “Trash”
PERFORMER “Korn”
FLAGS DCP
INDEX 00 52:37:06
INDEX 01 52:39:06
TRACK 15 AUDIO
TITLE “Right Now”
PERFORMER “Korn”
FLAGS DCP
INDEX 00 56:03:32
INDEX 01 56:05:32
TRACK 16 AUDIO
TITLE “Throw Me Away”
PERFORMER “Korn”
FLAGS DCP
INDEX 00 59:15:05
INDEX 01 59:17:05
TRACK 17 AUDIO
TITLE “Word Up!”
PERFORMER “Korn”
FLAGS DCP
INDEX 00 63:58:07
INDEX 01 64:00:07
TRACK 18 AUDIO
TITLE “Good God”
PERFORMER “Korn”
FLAGS DCP
INDEX 00 66:47:61
INDEX 01 66:49:61
TRACK 19 AUDIO
TITLE “Alone I Break”
PERFORMER “Korn”
FLAGS DCP
INDEX 00 70:10:39
INDEX 01 70:12:39
TRACK 20 AUDIO
TITLE “Love Song”
PERFORMER “Korn”
FLAGS DCP
INDEX 00 74:26:40
INDEX 01 74:28:40
TRACK 21 AUDIO
TITLE “Lowrider”
PERFORMER “Korn”
FLAGS DCP
INDEX 00 78:47:37
INDEX 01 78:49:37

REM DISCID 3D12AD13
REM COMMENT “ExactAudioCopy v0.95b3”
PERFORMER “Star Mark Greatest Hits CD2”
TITLE “Korn”
FILE “Star Mark Greatest Hits CD2 – Korn.wav” WAVE
TRACK 01 AUDIO
TITLE “Korn / Bitch We Got a Problem”
PERFORMER “Star Mark Greatest Hits CD2”
FLAGS DCP
INDEX 01 00:00:00
TRACK 02 AUDIO
TITLE “Korn / Freak on the Leash”
PERFORMER “Star Mark Greatest Hits CD2”
FLAGS DCP
INDEX 00 03:24:64
INDEX 01 03:26:64
TRACK 03 AUDIO
TITLE “Korn / Coming Undone”
PERFORMER “Star Mark Greatest Hits CD2”
FLAGS DCP
INDEX 00 07:42:49
INDEX 01 07:44:49
TRACK 04 AUDIO
TITLE “Korn / Starting Over”
PERFORMER “Star Mark Greatest Hits CD2”
FLAGS DCP
INDEX 00 11:05:14
INDEX 01 11:07:14
TRACK 05 AUDIO
TITLE “Korn / Another Brick in the Wall”
PERFORMER “Star Mark Greatest Hits CD2”
FLAGS DCP
INDEX 00 15:11:24
INDEX 01 15:13:24
TRACK 06 AUDIO
TITLE “Korn / Everything I’ve Known”
PERFORMER “Star Mark Greatest Hits CD2”
FLAGS DCP
INDEX 00 22:13:52
INDEX 01 22:15:52
TRACK 07 AUDIO
TITLE “Korn / Innocent Bystander”
PERFORMER “Star Mark Greatest Hits CD2”
FLAGS DCP
INDEX 00 25:51:63
INDEX 01 25:53:63
TRACK 08 AUDIO
TITLE “Korn / Hey Daddy”
PERFORMER “Star Mark Greatest Hits CD2”
FLAGS DCP
INDEX 00 29:23:60
INDEX 01 29:25:60
TRACK 09 AUDIO
TITLE “Korn / Bottled Up Inside”
PERFORMER “Star Mark Greatest Hits CD2”
FLAGS DCP
INDEX 00 33:08:73
INDEX 01 33:10:73
TRACK 10 AUDIO
TITLE “Korn / Open Up”
PERFORMER “Star Mark Greatest Hits CD2”
FLAGS DCP
INDEX 00 37:12:18
INDEX 01 37:14:18
TRACK 11 AUDIO
TITLE “Korn / It’s on”
PERFORMER “Star Mark Greatest Hits CD2”
FLAGS DCP
INDEX 00 43:31:35
INDEX 01 43:33:35
TRACK 12 AUDIO
TITLE “Korn / Alive”
PERFORMER “Star Mark Greatest Hits CD2”
FLAGS DCP
INDEX 00 48:04:19
INDEX 01 48:06:19
TRACK 13 AUDIO
TITLE “Korn / Hushabye”
PERFORMER “Star Mark Greatest Hits CD2”
FLAGS DCP
INDEX 00 52:37:58
INDEX 01 52:39:58
TRACK 14 AUDIO
TITLE “Korn / Make Me Bad”
PERFORMER “Star Mark Greatest Hits CD2”
FLAGS DCP
INDEX 00 56:34:06
INDEX 01 56:36:06
TRACK 15 AUDIO
TITLE “Korn / Thoughtless”
PERFORMER “Star Mark Greatest Hits CD2”
FLAGS DCP
INDEX 00 60:29:14
INDEX 01 60:31:14
TRACK 16 AUDIO
TITLE “Korn / Break Some Off”
PERFORMER “Star Mark Greatest Hits CD2”
FLAGS DCP
INDEX 00 65:05:07
INDEX 01 65:07:07
TRACK 17 AUDIO
TITLE “Korn / Ass Itch”
PERFORMER “Star Mark Greatest Hits CD2”
FLAGS DCP
INDEX 00 67:43:26
INDEX 01 67:45:26
TRACK 18 AUDIO
TITLE “Korn / Dead Bodies Everywhere”
PERFORMER “Star Mark Greatest Hits CD2”
FLAGS DCP
INDEX 00 71:04:31
INDEX 01 71:06:31
TRACK 19 AUDIO
TITLE “Korn / Somebody Someone”
PERFORMER “Star Mark Greatest Hits CD2”
FLAGS DCP
INDEX 00 75:52:54
INDEX 01 75:54:54

Leave a Reply

Your email address will not be published. Required fields are marked *

This site uses Akismet to reduce spam. Learn how your comment data is processed.