Korn – Follow The Leader (Ltd. Edition)




Artist: Korn
Year: 1998
Genre: Metal
Notes: Discogs
Add. Notes: Ltd. Edition
Encoder: FLAC
Bitrate: ~900 kBit/s (VBR)
Size: 707,01 MB
Password: “slam” (without ” “)


Crypted via FileCrypt.cc:

.

Crypted via Relink.to:

Tracklist:

1-13 	It's On! 	4:28
1-14 	Freak On A Leash 	4:15
1-15 	Got The Life 	3:45
1-16 	Dead Bodies Everywhere 	4:44
1-17 	Children Of The Korn 	3:52
1-18 	B.B.K. 	3:56
1-19 	Pretty 	4:12
1-20 	All In The Family 	4:48
1-21 	Reclaim My Place 	4:32
1-22 	Justin 	4:17
1-23 	Seed 	5:54
1-24 	Cameltosis 	4:38
1-25A 	My Gift To You 	15:40
1-25B 	Earache My Eye 	
	All In The Family Remixes
2-1 	All In The Family (Clark World Mix) 	4:45
2-2 	All In The Family (Sowing The Beats Mix) 
	4:51
2-3 	All In The Family (Beats In Peace Mix) 	4:15
2-4 	All In The Family (Scary Bird Mix) 	8:40

EAC-Log, CUE-Sheed & NFO:

Click to open spoiler
Exact Audio Copy V1.0 beta 4 from 7. December 2014

EAC extraction logfile from 20. March 2015, 22:36

Korn / Follow The Leader CD1

Used drive : ATAPI iHBS112 2 Adapter: 1 ID: 0

Read mode : Secure
Utilize accurate stream : Yes
Defeat audio cache : Yes
Make use of C2 pointers : No

Read offset correction : 6
Overread into Lead-In and Lead-Out : No
Fill up missing offset samples with silence : Yes
Delete leading and trailing silent blocks : No
Null samples used in CRC calculations : Yes
Used interface : Native Win32 interface for Win NT & 2000

Used output format : Internal WAV Routines
Sample format : 44.100 Hz; 16 Bit; Stereo

TOC of the extracted CD

Track | Start | Length | Start sector | End sector
———————————————————
1 | 0:00.00 | 0:05.20 | 0 | 394
2 | 0:05.20 | 0:05.00 | 395 | 769
3 | 0:10.20 | 0:05.00 | 770 | 1144
4 | 0:15.20 | 0:05.00 | 1145 | 1519
5 | 0:20.20 | 0:05.00 | 1520 | 1894
6 | 0:25.20 | 0:05.00 | 1895 | 2269
7 | 0:30.20 | 0:05.00 | 2270 | 2644
8 | 0:35.20 | 0:05.00 | 2645 | 3019
9 | 0:40.20 | 0:05.00 | 3020 | 3394
10 | 0:45.20 | 0:05.00 | 3395 | 3769
11 | 0:50.20 | 0:05.00 | 3770 | 4144
12 | 0:55.20 | 0:05.00 | 4145 | 4519
13 | 1:00.20 | 4:28.57 | 4520 | 24676
14 | 5:29.02 | 4:15.25 | 24677 | 43826
15 | 9:44.27 | 3:45.13 | 43827 | 60714
16 | 13:29.40 | 4:44.67 | 60715 | 82081
17 | 18:14.32 | 3:52.23 | 82082 | 99504
18 | 22:06.55 | 3:56.30 | 99505 | 117234
19 | 26:03.10 | 4:12.07 | 117235 | 136141
20 | 30:15.17 | 4:48.60 | 136142 | 157801
21 | 35:04.02 | 4:32.40 | 157802 | 178241
22 | 39:36.42 | 4:17.08 | 178242 | 197524
23 | 43:53.50 | 5:54.57 | 197525 | 224131
24 | 49:48.32 | 4:38.00 | 224132 | 244981
25 | 54:26.32 | 15:40.33 | 244982 | 315514

Range status and errors

Selected range

Filename C:\lossless\zhen01\Korn – Follow The Leader CD1.wav

Peak level 98.8 %
Extraction speed 10.0 X
Range quality 100.0 %
Test CRC C543B8D6
Copy CRC C543B8D6
Copy OK

No errors occurred

AccurateRip summary

Track 1 not present in database
Track 2 not present in database
Track 3 not present in database
Track 4 not present in database
Track 5 not present in database
Track 6 not present in database
Track 7 not present in database
Track 8 not present in database
Track 9 not present in database
Track 10 not present in database
Track 11 not present in database
Track 12 not present in database
Track 13 accurately ripped (confidence 109) [BEEBAB52] (AR v2)
Track 14 accurately ripped (confidence 109) [FD5742F3] (AR v2)
Track 15 accurately ripped (confidence 108) [652B6569] (AR v2)
Track 16 accurately ripped (confidence 107) [C6E82625] (AR v2)
Track 17 accurately ripped (confidence 107) [F8C64BB5] (AR v2)
Track 18 accurately ripped (confidence 108) [75C96C47] (AR v2)
Track 19 accurately ripped (confidence 107) [E7BABC34] (AR v2)
Track 20 accurately ripped (confidence 108) [70F0A507] (AR v2)
Track 21 accurately ripped (confidence 108) [AE83F18C] (AR v2)
Track 22 accurately ripped (confidence 107) [1FA25610] (AR v2)
Track 23 accurately ripped (confidence 106) [F11B9C62] (AR v2)
Track 24 accurately ripped (confidence 107) [D8D4C440] (AR v2)
Track 25 accurately ripped (confidence 101) [FAED8F3A] (AR v2)

13 track(s) accurately ripped
12 track(s) not present in the AccurateRip database

Some tracks could not be verified as accurate

End of status report

—- CUETools DB Plugin V2.1.4

[CTDB TOCID: eFfR7JwecB.VOlHWEvDXSABn27w-] found
Submit result: already submitted
Track | CTDB Status
1 | (204/204) Accurately ripped
2 | (204/204) Accurately ripped
3 | (204/204) Accurately ripped
4 | (204/204) Accurately ripped
5 | (204/204) Accurately ripped
6 | (204/204) Accurately ripped
7 | (204/204) Accurately ripped
8 | (204/204) Accurately ripped
9 | (204/204) Accurately ripped
10 | (204/204) Accurately ripped
11 | (204/204) Accurately ripped
12 | (204/204) Accurately ripped
13 | (204/204) Accurately ripped
14 | (204/204) Accurately ripped
15 | (204/204) Accurately ripped
16 | (204/204) Accurately ripped
17 | (204/204) Accurately ripped
18 | (204/204) Accurately ripped
19 | (204/204) Accurately ripped
20 | (203/204) Accurately ripped
21 | (203/204) Accurately ripped
22 | (203/204) Accurately ripped
23 | (202/204) Accurately ripped
24 | (204/204) Accurately ripped
25 | (203/204) Accurately ripped

==== Log checksum 4F04F27F718AD91CE67D8A1F1E09774D51D9E46CFE519297AB990375804AFC33 ====

Exact Audio Copy V1.0 beta 4 from 7. December 2014

EAC extraction logfile from 20. March 2015, 22:45

Korn / Follow The Leader CD2 – All In The Family Remixes

Used drive : ATAPI iHBS112 2 Adapter: 1 ID: 0

Read mode : Secure
Utilize accurate stream : Yes
Defeat audio cache : Yes
Make use of C2 pointers : No

Read offset correction : 6
Overread into Lead-In and Lead-Out : No
Fill up missing offset samples with silence : Yes
Delete leading and trailing silent blocks : No
Null samples used in CRC calculations : Yes
Used interface : Native Win32 interface for Win NT & 2000

Used output format : Internal WAV Routines
Sample format : 44.100 Hz; 16 Bit; Stereo

TOC of the extracted CD

Track | Start | Length | Start sector | End sector
———————————————————
1 | 0:00.00 | 4:46.25 | 0 | 21474
2 | 4:46.25 | 4:55.00 | 21475 | 43599
3 | 9:41.25 | 4:15.72 | 43600 | 62796
4 | 13:57.22 | 8:39.20 | 62797 | 101741

Range status and errors

Selected range

Filename C:\lossless\zhen01\Korn – Follow The Leader CD2 – All In The Family Remixes.wav

Peak level 98.8 %
Extraction speed 6.7 X
Range quality 99.9 %
Test CRC 81D44790
Copy CRC 81D44790
Copy OK

No errors occurred

AccurateRip summary

Track 1 accurately ripped (confidence 32) [77FCEE25] (AR v2)
Track 2 accurately ripped (confidence 32) [ADF5FC08] (AR v2)
Track 3 accurately ripped (confidence 32) [5E8F07D0] (AR v2)
Track 4 accurately ripped (confidence 32) [A2CA6DAF] (AR v2)

All tracks accurately ripped

End of status report

—- CUETools DB Plugin V2.1.4

[CTDB TOCID: 4mVB84Yppfu1.3Q8xF2T_hOAwsU-] found
Submit result: already submitted
Track | CTDB Status
1 | (35/35) Accurately ripped
2 | (35/35) Accurately ripped
3 | (35/35) Accurately ripped
4 | (35/35) Accurately ripped

==== Log checksum B7A1D766DF64F147FD8C0B1314F2CC53EAD84C38EE78E8013E8B576D266D04E5 ====

Leave a Reply

Your email address will not be published. Required fields are marked *

This site uses Akismet to reduce spam. Learn how your comment data is processed.