Korn – All Mixed Up




No Cover available

Artist: Korn
Year: 1999
Genre: Metal
Notes: Discogs
Add. Notes:
Watch Songs on: YouTube
Cover incl.: Yes
Encoder: FLAC
Bitrate: ~1000 kBit/s (44.1 kHz/16 Bit/s)
Log & Cue incl.: Yes/Yes
Size: 151,2 MB
Password: “slam” (without ” “)


All Downloads/Hosters are compatible

Download 1
KatFile.com
Turbobit.net
FileFactory.com
Rapidgator.net
Download 2
KatFile.com
Turbobit.net
FileFactory.com
Rapidgator.net

Tracklist:

1 - A.D.I.D.A.S. (Radio Mix) - 2:34
2 - Good God (Dub Pistols Mix) - 6:20
3 - Got The Life (Josh Abraham Remix) - 4:01
4 - Twist / Chi (Live) - 5:16
5 - Jingle Balls - 3:27

EAC-Log, CUE-Sheed & NFO:

Click to open spoiler
Exact Audio Copy V1.0 beta 4 from 7. December 2014

EAC extraction logfile from 20. March 2015, 23:08

Korn / All Mixed Up

Used drive : ATAPI iHBS112 2 Adapter: 1 ID: 0

Read mode : Secure
Utilize accurate stream : Yes
Defeat audio cache : Yes
Make use of C2 pointers : No

Read offset correction : 6
Overread into Lead-In and Lead-Out : No
Fill up missing offset samples with silence : Yes
Delete leading and trailing silent blocks : No
Null samples used in CRC calculations : Yes
Used interface : Native Win32 interface for Win NT & 2000

Used output format : Internal WAV Routines
Sample format : 44.100 Hz; 16 Bit; Stereo

TOC of the extracted CD

Track | Start | Length | Start sector | End sector
———————————————————
1 | 0:00.00 | 2:35.67 | 0 | 11691
2 | 2:35.67 | 6:18.18 | 11692 | 40059
3 | 8:54.10 | 4:02.57 | 40060 | 58266
4 | 12:56.67 | 5:16.50 | 58267 | 82016
5 | 18:13.42 | 3:27.28 | 82017 | 97569

Range status and errors

Selected range

Filename C:\lossless\zhen01\Korn – All Mixed Up.wav

Peak level 100.0 %
Extraction speed 7.6 X
Range quality 100.0 %
Test CRC AF9B09B5
Copy CRC AF9B09B5
Copy OK

No errors occurred

AccurateRip summary

Track 1 accurately ripped (confidence 20) [4395B347] (AR v2)
Track 2 accurately ripped (confidence 21) [A505B66C] (AR v2)
Track 3 accurately ripped (confidence 21) [98993040] (AR v2)
Track 4 accurately ripped (confidence 21) [91B2B1CD] (AR v2)
Track 5 accurately ripped (confidence 21) [8C734E18] (AR v2)

All tracks accurately ripped

End of status report

—- CUETools DB Plugin V2.1.4

[CTDB TOCID: zgVaRQGuZ_zDhvUZhmNKnIh9BBs-] found
Submit result: already submitted
Track | CTDB Status
1 | (22/22) Accurately ripped
2 | (22/22) Accurately ripped
3 | (22/22) Accurately ripped
4 | (22/22) Accurately ripped
5 | (22/22) Accurately ripped

==== Log checksum B57A2923ACE60E807317DE3828C93232AF9C341B090E01C255C8D01DD944DBF2 ====

REM GENRE “Nu Metal”
REM DATE 1999
REM DISCID 42051405
REM COMMENT “ExactAudioCopy v1.0b3”
PERFORMER “Korn”
TITLE “All Mixed Up”
FILE “Korn – All Mixed Up.flac” WAVE
TRACK 01 AUDIO
TITLE “A.D.I.D.A.S. (Radio Mix)”
PERFORMER “Korn”
ISRC USSM19603925
INDEX 01 00:00:00
TRACK 02 AUDIO
TITLE “Good God (Dub Pistols Mix)”
PERFORMER “Korn”
ISRC USSM19606049
INDEX 00 02:34:47
INDEX 01 02:35:67
TRACK 03 AUDIO
TITLE “Got The Life (Josh Abraham Remix)”
PERFORMER “Korn”
ISRC USSM19804659
INDEX 01 08:54:10
TRACK 04 AUDIO
TITLE “Twist/Chi (Live)”
PERFORMER “Korn”
ISRC USSM19806338
INDEX 00 12:55:47
INDEX 01 12:56:67
TRACK 05 AUDIO
TITLE “Jingle Balls”
PERFORMER “Korn”
ISRC USSM19801768
INDEX 00 18:12:17
INDEX 01 18:13:42


Leave a Reply

Your email address will not be published. Required fields are marked *

Enter the text from the image below
 

This site uses Akismet to reduce spam. Learn how your comment data is processed.