Knorkator – We Want Mohr




Artist: Knorkator
Year: 2014
Genre: Metal
Notes: Discogs
Add. Notes:
Cover incl.: Yes
Encoder: FLAC
Bitrate: ~900 kBit/s (44.1 kHz/16 Bit/s)
Log & Cue incl.: Yes
Size: 342,84 MB
Password: “slam” (without ” “)


All Downloads/Hosters are compatible

Download 1
Turbobit.net
Rapidgator.net
KatFile.com
UploadRar.com
Download 2
Turbobit.net
Rapidgator.net
KatFile.com
UploadRar.com
Download 3
Turbobit.net
Rapidgator.net
KatFile.com
UploadRar.com

Tracklist:

1 - Hymne - 2:10
2 - Zoo - 3:37
3 - L - 4:10
4 - Antwort - 5:30
5 - Konrad - 3:44
6 - Fortschritt - 5:24
7 - Ich Gebe Es Auf - 5:15
8 - Robert - 3:44
9 - Victorious - 5:13
10 - Breaking The Law - 2:36
11 - Friederich - 3:59
12 - Time To Rise - 3:01
13 - Adé - 0:04

EAC-Log, CUE-Sheed & NFO:

Click to open spoiler
Exact Audio Copy V1.0 beta 3 from 29. August 2011

EAC extraction logfile from 17. January 2014, 17:47

Knorkator / We want Mohr

Used drive : TSSTcorpCDDVDW SH-S203N Adapter: 2 ID: 0

Read mode : Secure
Utilize accurate stream : Yes
Defeat audio cache : No
Make use of C2 pointers : No

Read offset correction : 6
Overread into Lead-In and Lead-Out : No
Fill up missing offset samples with silence : Yes
Delete leading and trailing silent blocks : No
Null samples used in CRC calculations : Yes
Used interface : Native Win32 interface for Win NT & 2000
Gap handling : Appended to previous track

Used output format : User Defined Encoder
Selected bitrate : 1024 kBit/s
Quality : High
Add ID3 tag : No
Command line compressor : C:\Program Files (x86)\Exact Audio Copy\FLAC\FLAC.EXE
Additional command line options : -8 -V -T “ARTIST=%artist%” -T “TITLE=%title%” -T “ALBUM=%albumtitle%” -T “DATE=%year%” -T “TRACKNUMBER=%tracknr2%” -T “GENRE=%genre%” -T “COMMENT=%comment%” %source% -o %dest%

TOC of the extracted CD

Track | Start | Length | Start sector | End sector
———————————————————
1 | 0:00.00 | 2:10.16 | 0 | 9765
2 | 2:10.16 | 3:37.71 | 9766 | 26111
3 | 5:48.12 | 4:09.56 | 26112 | 44842
4 | 9:57.68 | 5:29.44 | 44843 | 69561
5 | 15:27.37 | 3:44.07 | 69562 | 86368
6 | 19:11.44 | 5:24.72 | 86369 | 110740
7 | 24:36.41 | 5:15.36 | 110741 | 134401
8 | 29:52.02 | 3:45.16 | 134402 | 151292
9 | 33:37.18 | 5:13.69 | 151293 | 174836
10 | 38:51.12 | 2:36.72 | 174837 | 186608
11 | 41:28.09 | 4:00.56 | 186609 | 204664
12 | 45:28.65 | 3:02.50 | 204665 | 218364
13 | 48:31.40 | 2:47.24 | 218365 | 230913

Track 1

Filename E:\Eigene Dateien\Eigene Musik\Converted\Knorkator\[2014] We want Mohr\01 – Hymne.wav

Pre-gap length 0:00:02.00

Peak level 93.9 %
Extraction speed 7.0 X
Track quality 100.0 %
Test CRC 0EA79FB4
Copy CRC 0EA79FB4
Track not present in AccurateRip database
Copy OK

Track 2

Filename E:\Eigene Dateien\Eigene Musik\Converted\Knorkator\[2014] We want Mohr\02 – Zoo.wav

Peak level 97.3 %
Extraction speed 7.7 X
Track quality 100.0 %
Test CRC 2F16257B
Copy CRC 2F16257B
Track not present in AccurateRip database
Copy OK

Track 3

Filename E:\Eigene Dateien\Eigene Musik\Converted\Knorkator\[2014] We want Mohr\03 – L.wav

Peak level 99.2 %
Extraction speed 8.4 X
Track quality 100.0 %
Test CRC C69A4A3D
Copy CRC C69A4A3D
Track not present in AccurateRip database
Copy OK

Track 4

Filename E:\Eigene Dateien\Eigene Musik\Converted\Knorkator\[2014] We want Mohr\04 – Antwort.wav

Peak level 97.3 %
Extraction speed 9.1 X
Track quality 100.0 %
Test CRC 79FB671B
Copy CRC 79FB671B
Track not present in AccurateRip database
Copy OK

Track 5

Filename E:\Eigene Dateien\Eigene Musik\Converted\Knorkator\[2014] We want Mohr\05 – Konrad.wav

Peak level 97.6 %
Extraction speed 8.8 X
Track quality 99.9 %
Test CRC 5A6E7B52
Copy CRC 5A6E7B52
Track not present in AccurateRip database
Copy OK

Track 6

Filename E:\Eigene Dateien\Eigene Musik\Converted\Knorkator\[2014] We want Mohr\06 – Fortschritt.wav

Peak level 97.9 %
Extraction speed 10.3 X
Track quality 100.0 %
Test CRC 2493827A
Copy CRC 2493827A
Track not present in AccurateRip database
Copy OK

Track 7

Filename E:\Eigene Dateien\Eigene Musik\Converted\Knorkator\[2014] We want Mohr\07 – Ich geb es auf.wav

Peak level 95.5 %
Extraction speed 11.0 X
Track quality 100.0 %
Test CRC 6A02B14D
Copy CRC 6A02B14D
Track not present in AccurateRip database
Copy OK

Track 8

Filename E:\Eigene Dateien\Eigene Musik\Converted\Knorkator\[2014] We want Mohr\08 – Robert.wav

Peak level 97.6 %
Extraction speed 11.3 X
Track quality 100.0 %
Test CRC 5A011EE6
Copy CRC 5A011EE6
Track not present in AccurateRip database
Copy OK

Track 9

Filename E:\Eigene Dateien\Eigene Musik\Converted\Knorkator\[2014] We want Mohr\09 – Victorious.wav

Peak level 94.7 %
Extraction speed 11.9 X
Track quality 100.0 %
Test CRC 376F42A7
Copy CRC 376F42A7
Track not present in AccurateRip database
Copy OK

Track 10

Filename E:\Eigene Dateien\Eigene Musik\Converted\Knorkator\[2014] We want Mohr\10 – Breaking the Law.wav

Peak level 92.8 %
Extraction speed 12.0 X
Track quality 100.0 %
Test CRC 638C7EE1
Copy CRC 638C7EE1
Track not present in AccurateRip database
Copy OK

Track 11

Filename E:\Eigene Dateien\Eigene Musik\Converted\Knorkator\[2014] We want Mohr\11 – Friederich.wav

Peak level 93.4 %
Extraction speed 12.4 X
Track quality 100.0 %
Test CRC B4889895
Copy CRC B4889895
Track not present in AccurateRip database
Copy OK

Track 12

Filename E:\Eigene Dateien\Eigene Musik\Converted\Knorkator\[2014] We want Mohr\12 – Time to rise.wav

Peak level 92.8 %
Extraction speed 12.8 X
Track quality 100.0 %
Test CRC 91A61685
Copy CRC 91A61685
Track not present in AccurateRip database
Copy OK

Track 13

Filename E:\Eigene Dateien\Eigene Musik\Converted\Knorkator\[2014] We want Mohr\13 – Adé.wav

Peak level 92.9 %
Extraction speed 11.2 X
Track quality 99.9 %
Test CRC 0AF479DA
Copy CRC 0AF479DA
Track not present in AccurateRip database
Copy OK

None of the tracks are present in the AccurateRip database

No errors occurred

End of status report

==== Log checksum 6CFECCB3CEFD9AF78A12960BA9C1822AFD0CDCAA2D96487E49058EECE8DD1334 ====

REM GENRE “Fun Metal”
REM DATE 2014
REM DISCID AF0C060D
REM COMMENT “ExactAudioCopy v1.0b3”
PERFORMER “Knorkator”
TITLE “We want Mohr”
FILE “Knorkator\[2014] We want Mohr\01 – Hymne.wav” WAVE
TRACK 01 AUDIO
TITLE “Hymne”
PERFORMER “Knorkator”
ISRC

Leave a Reply

Your email address will not be published. Required fields are marked *

This site uses Akismet to reduce spam. Learn how your comment data is processed.