King Krule – Man Alive!




No Cover available

Artist: King Krule
Year: 2020
Genre: Rock
Notes: Discogs
Add. Notes:
Watch Songs on: YouTube
Cover incl.: Yes
Encoder: FLAC
Bitrate: ~800 kBit/s (44.1 kHz/16 Bit/s)
Log & Cue incl.: Yes/Yes
Size: 199,8 MB
Password: “slam” (without ” “)


All Downloads/Hosters are compatible

Download 1
KatFile.com
Turbobit.net
Rapidgator.net
FileFactory.com
Download 2
KatFile.com
Turbobit.net
Rapidgator.net
FileFactory.com

Tracklist:

01.Cellular (02:59)
02.Supermarché (02:37)
03.Stoned Again (03:26)
04.Comet Face (03:14)
05.The Dream (01:39)
06.Perfecto Miserable (03:16)
07.Alone, Omen 3 (02:47)
08.Slinky (02:51)
09.Airport Antenatal Airplane (02:15)
10.(Don’t Let the Dragon) Draag On (02:32)
11.Theme for the Cross (04:07)
12.Underclass (03:30)
13.Energy Fleets (02:35)
14.Please Complete Thee (04:06)

EAC-Log, CUE-Sheed & NFO:

Click to open spoiler
Exact Audio Copy V1.3 from 2. September 2016

EAC extraction logfile from 19. February 2020, 16:56

King Krule / Man Alive!

Used drive : TSSTcorpCDDVDW SE-218GN Adapter: 1 ID: 0

Read mode : Secure
Utilize accurate stream : Yes
Defeat audio cache : Yes
Make use of C2 pointers : No

Read offset correction : 6
Overread into Lead-In and Lead-Out : No
Fill up missing offset samples with silence : Yes
Delete leading and trailing silent blocks : No
Null samples used in CRC calculations : Yes
Used interface : Native Win32 interface for Win NT & 2000
Gap handling : Appended to previous track

Used output format : User Defined Encoder
Selected bitrate : 1024 kBit/s
Quality : High
Add ID3 tag : No
Command line compressor : C:\Program Files (x86)\Exact Audio Copy\Flac\flac.exe
Additional command line options : -8 -e -p -V -T “ARTIST=%artist%” -T “TITLE=%title%” -T “ALBUM=%albumtitle%” -T “DATE=%year%” -T “TRACKNUMBER=%tracknr%” -T “GENRE=%genre%” -T “PERFORMER=%albuminterpret%” -T “COMPOSER=%composer%” %haslyrics%–tag-from-file=LYRICS=”%lyricsfile%”%haslyrics% -T “ALBUMARTIST=%albumartist%” -T “DISCNUMBER=%cdnumber%” -T “TOTALDISCS=%totalcds%” -T “TOTALTRACKS=%numtracks%” -T “COMMENT=%comment%” %source% -o %dest%

TOC of the extracted CD

Track | Start | Length | Start sector | End sector
———————————————————
1 | 0:00.00 | 2:59.03 | 0 | 13427
2 | 2:59.03 | 2:36.67 | 13428 | 25194
3 | 5:35.70 | 3:25.72 | 25195 | 40641
4 | 9:01.67 | 3:13.68 | 40642 | 55184
5 | 12:15.60 | 1:39.14 | 55185 | 62623
6 | 13:54.74 | 3:15.59 | 62624 | 77307
7 | 17:10.58 | 2:47.19 | 77308 | 89851
8 | 19:58.02 | 2:50.33 | 89852 | 102634
9 | 22:48.35 | 2:15.21 | 102635 | 112780
10 | 25:03.56 | 2:31.71 | 112781 | 124176
11 | 27:35.52 | 4:06.34 | 124177 | 142660
12 | 31:42.11 | 3:30.00 | 142661 | 158410
13 | 35:12.11 | 2:34.37 | 158411 | 169997
14 | 37:46.48 | 4:05.44 | 169998 | 188416

Track 1

Filename C:\Users\Ringo\Desktop\Orpheus Uploads\King Krule – Man Alive! (CD FLAC)\01 Cellular.wav

Pre-gap length 0:00:02.00

Peak level 95.8 %
Extraction speed 1.0 X
Track quality 100.0 %
Test CRC 45F69084
Copy CRC 45F69084
Track not present in AccurateRip database
Copy OK

Track 2

Filename C:\Users\Ringo\Desktop\Orpheus Uploads\King Krule – Man Alive! (CD FLAC)\02 Supermaché.wav

Pre-gap length 0:00:01.34

Peak level 97.1 %
Extraction speed 1.1 X
Track quality 100.0 %
Test CRC 404BFB4D
Copy CRC 404BFB4D
Track not present in AccurateRip database
Copy OK

Track 3

Filename C:\Users\Ringo\Desktop\Orpheus Uploads\King Krule – Man Alive! (CD FLAC)\03 Stoned Again.wav

Peak level 95.7 %
Extraction speed 1.2 X
Track quality 100.0 %
Test CRC EB11D70B
Copy CRC EB11D70B
Track not present in AccurateRip database
Copy OK

Track 4

Filename C:\Users\Ringo\Desktop\Orpheus Uploads\King Krule – Man Alive! (CD FLAC)\04 Comet Face.wav

Peak level 95.9 %
Extraction speed 1.3 X
Track quality 100.0 %
Test CRC 8B023C2E
Copy CRC 8B023C2E
Track not present in AccurateRip database
Copy OK

Track 5

Filename C:\Users\Ringo\Desktop\Orpheus Uploads\King Krule – Man Alive! (CD FLAC)\05 The Dream.wav

Peak level 95.5 %
Extraction speed 1.1 X
Track quality 100.0 %
Test CRC 7C714645
Copy CRC 7C714645
Track not present in AccurateRip database
Copy OK

Track 6

Filename C:\Users\Ringo\Desktop\Orpheus Uploads\King Krule – Man Alive! (CD FLAC)\06 Perfecto Miserable.wav

Pre-gap length 0:00:03.85

Peak level 95.8 %
Extraction speed 1.4 X
Track quality 100.0 %
Test CRC 6D4C9A57
Copy CRC 6D4C9A57
Track not present in AccurateRip database
Copy OK

Track 7

Filename C:\Users\Ringo\Desktop\Orpheus Uploads\King Krule – Man Alive! (CD FLAC)\07 Alone Omen 3.wav

Peak level 96.5 %
Extraction speed 1.4 X
Track quality 100.0 %
Test CRC 7C722903
Copy CRC 7C722903
Track not present in AccurateRip database
Copy OK

Track 8

Filename C:\Users\Ringo\Desktop\Orpheus Uploads\King Krule – Man Alive! (CD FLAC)\08 Slinsky.wav

Peak level 95.7 %
Extraction speed 1.5 X
Track quality 100.0 %
Test CRC DD17424D
Copy CRC DD17424D
Track not present in AccurateRip database
Copy OK

Track 9

Filename C:\Users\Ringo\Desktop\Orpheus Uploads\King Krule – Man Alive! (CD FLAC)\09 Airport Antenatal Airplane.wav

Peak level 95.6 %
Extraction speed 1.4 X
Track quality 100.0 %
Test CRC 8D536073
Copy CRC 8D536073
Track not present in AccurateRip database
Copy OK

Track 10

Filename C:\Users\Ringo\Desktop\Orpheus Uploads\King Krule – Man Alive! (CD FLAC)\10 (Don’t Let the Dragon) Draag On.wav

Peak level 95.6 %
Extraction speed 1.5 X
Track quality 100.0 %
Test CRC 7CCEDED7
Copy CRC 7CCEDED7
Track not present in AccurateRip database
Copy OK

Track 11

Filename C:\Users\Ringo\Desktop\Orpheus Uploads\King Krule – Man Alive! (CD FLAC)\11 Theme for the Cross.wav

Pre-gap length 0:00:01.08

Peak level 95.5 %
Extraction speed 1.7 X
Track quality 100.0 %
Test CRC 1E9D2821
Copy CRC 1E9D2821
Track not present in AccurateRip database
Copy OK

Track 12

Filename C:\Users\Ringo\Desktop\Orpheus Uploads\King Krule – Man Alive! (CD FLAC)\12 Underclass.wav

Peak level 95.6 %
Extraction speed 1.7 X
Track quality 100.0 %
Test CRC 3E7BD69E
Copy CRC 3E7BD69E
Track not present in AccurateRip database
Copy OK

Track 13

Filename C:\Users\Ringo\Desktop\Orpheus Uploads\King Krule – Man Alive! (CD FLAC)\13 Energy Fleets.wav

Peak level 96.6 %
Extraction speed 1.7 X
Track quality 100.0 %
Test CRC 9AA1FCAF
Copy CRC 9AA1FCAF
Track not present in AccurateRip database
Copy OK

Track 14

Filename C:\Users\Ringo\Desktop\Orpheus Uploads\King Krule – Man Alive! (CD FLAC)\14 Please Complete Thee.wav

Peak level 95.5 %
Extraction speed 1.9 X
Track quality 100.0 %
Test CRC E2EE3C7A
Copy CRC E2EE3C7A
Track not present in AccurateRip database
Copy OK

None of the tracks are present in the AccurateRip database

No errors occurred

End of status report

—- CUETools DB Plugin V2.1.6

[CTDB TOCID: NdS7eivmPItFYBJxmRygTxXb640-] found
Submit result: NdS7eivmPItFYBJxmRygTxXb640- has been confirmed
Track | CTDB Status
1 | (1/1) Accurately ripped
2 | (1/1) Accurately ripped
3 | (1/1) Accurately ripped
4 | (1/1) Accurately ripped
5 | (1/1) Accurately ripped
6 | (1/1) Accurately ripped
7 | (1/1) Accurately ripped
8 | (1/1) Accurately ripped
9 | (1/1) Accurately ripped
10 | (1/1) Accurately ripped
11 | (1/1) Accurately ripped
12 | (1/1) Accurately ripped
13 | (1/1) Accurately ripped
14 | (1/1) Accurately ripped

==== Log checksum 37A568A2ED19C9BCFF3FAE7A5B1C7AE13E69BFA5F4F4D2E97C515BB62B19AE2A ====

REM GENRE Alternative
REM DATE 2020
REM DISCID A109D00E
REM COMMENT “ExactAudioCopy v1.3”
PERFORMER “King Krule”
TITLE “Man Alive!”
REM COMPOSER “”
FILE “01 Cellular.wav” WAVE
TRACK 01 AUDIO
TITLE “Cellular”
PERFORMER “King Krule”
REM COMPOSER “”
ISRC GBBKS1900136
INDEX 01 00:00:00
TRACK 02 AUDIO
TITLE “Supermaché”
PERFORMER “King Krule”
REM COMPOSER “”
ISRC GBBKS1900137
INDEX 00 02:57:52
FILE “02 Supermaché.wav” WAVE
INDEX 01 00:00:00
FILE “03 Stoned Again.wav” WAVE
TRACK 03 AUDIO
TITLE “Stoned Again”
PERFORMER “King Krule”
REM COMPOSER “”
ISRC GBBKS1900138
INDEX 01 00:00:00
FILE “04 Comet Face.wav” WAVE
TRACK 04 AUDIO
TITLE “Comet Face”
PERFORMER “King Krule”
REM COMPOSER “”
ISRC GBBKS1900139
INDEX 01 00:00:00
FILE “05 The Dream.wav” WAVE
TRACK 05 AUDIO
TITLE “The Dream”
PERFORMER “King Krule”
REM COMPOSER “”
ISRC GBBKS1900140
INDEX 01 00:00:00
TRACK 06 AUDIO
TITLE “Perfecto Miserable”
PERFORMER “King Krule”
REM COMPOSER “”
ISRC GBBKS1900141
INDEX 00 01:35:25
FILE “06 Perfecto Miserable.wav” WAVE
INDEX 01 00:00:00
FILE “07 Alone Omen 3.wav” WAVE
TRACK 07 AUDIO
TITLE “Alone Omen 3”
PERFORMER “King Krule”
REM COMPOSER “”
ISRC GBBKS1900142
INDEX 01 00:00:00
FILE “08 Slinsky.wav” WAVE
TRACK 08 AUDIO
TITLE “Slinsky”
PERFORMER “King Krule”
REM COMPOSER “”
ISRC GBBKS1900143
INDEX 01 00:00:00
FILE “09 Airport Antenatal Airplane.wav” WAVE
TRACK 09 AUDIO
TITLE “Airport Antenatal Airplane”
PERFORMER “King Krule”
REM COMPOSER “”
ISRC GBBKS1900144
INDEX 01 00:00:00
FILE “10 (Don’t Let the Dragon) Draag On.wav” WAVE
TRACK 10 AUDIO
TITLE “(Don’t Let the Dragon) Draag On”
PERFORMER “King Krule”
REM COMPOSER “”
ISRC GBBKS1900145
INDEX 01 00:00:00
TRACK 11 AUDIO
TITLE “Theme for the Cross”
PERFORMER “King Krule”
REM COMPOSER “”
ISRC GBBKS1900146
INDEX 00 02:30:65
FILE “11 Theme for the Cross.wav” WAVE
INDEX 01 00:00:00
FILE “12 Underclass.wav” WAVE
TRACK 12 AUDIO
TITLE “Underclass”
PERFORMER “King Krule”
REM COMPOSER “”
ISRC GBBKS1900147
INDEX 01 00:00:00
FILE “13 Energy Fleets.wav” WAVE
TRACK 13 AUDIO
TITLE “Energy Fleets”
PERFORMER “King Krule”
REM COMPOSER “”
ISRC GBBKS1900148
INDEX 01 00:00:00
FILE “14 Please Complete Thee.wav” WAVE
TRACK 14 AUDIO
TITLE “Please Complete Thee”
PERFORMER “King Krule”
REM COMPOSER “”
ISRC GBBKS1900149
INDEX 01 00:00:00


Leave a Reply

Your email address will not be published. Required fields are marked *

Enter the text from the image below
 

This site uses Akismet to reduce spam. Learn how your comment data is processed.