Killswitch Engage – Killswitch Engage




Artist: Killswitch Engage
Year: 2000
Genre: Metal
Notes: Discogs
Add. Notes:
Cover incl.: Yes
Encoder: FLAC
Bitrate: ~1000 kBit/s (44.1 kHz/16 Bit/s)
Log & Cue incl.: Yes
Size: 237,43 MB
Password: “slam” (without ” “)


All Downloads/Hosters are compatible

Download 1
Turbobit.net
KatFile.com
Rapidgator.net
Download 2
Turbobit.net
KatFile.com
Rapidgator.net

Tracklist:

1 - Temple From The Within - 3:45
2 - Vide Infra - 3:34
3 - Irreversal - 4:17
4 - Rusted Embrace - 4:25
5 - Prelude - 1:55
6 - Soilborn - 3:27
7 - Numb Sickened Eyes - 3:35
8 - In The Unblind - 2:52
9 - One Last Sunset - 3:57

EAC-Log, CUE-Sheed & NFO:

Click to open spoiler
EAC extraction logfile from 26. February 2007, 0:44 for CD
Killswitch Engage / Killswitch Engage

Used drive : MAD DOG MD-16XDVD9A4 Adapter: 1 ID: 1
Read mode : Secure with NO C2, accurate stream, disable cache
Read offset correction : 48
Overread into Lead-In and Lead-Out : No

Used output format : C:\Program Files\FLAC\flac.exe (User Defined Encoder)
128 kBit/s
Additional command line options : -V -8 -T “artist=%a” -T “title=%t” -T “album=%g” -T “date=%y” -T “tracknumber=%n” -T “genre=%m” %s

Other options :
Fill up missing offset samples with silence : Yes
Delete leading and trailing silent blocks : No
Installed external ASPI interface

Track 1
Filename 01-Killswitch Engage-Temple From The Within.wav

Pre-gap length 0:00:02.00

Peak level 99.4 %
Track quality 100.0 %
Test CRC C1FF1D3F
Copy CRC C1FF1D3F
Copy OK

Track 2
Filename 02-Killswitch Engage-Vide Infra.wav

Peak level 99.4 %
Track quality 100.0 %
Test CRC 0792C50D
Copy CRC 0792C50D
Copy OK

Track 3
Filename 03-Killswitch Engage-Irreversal.wav

Pre-gap length 0:00:00.01

Peak level 99.4 %
Track quality 100.0 %
Test CRC FC07867F
Copy CRC FC07867F
Copy OK

Track 4
Filename 04-Killswitch Engage-Rusted Embrace.wav

Pre-gap length 0:00:00.01

Peak level 99.4 %
Track quality 99.9 %
Test CRC EDB96FF7
Copy CRC EDB96FF7
Copy OK

Track 5
Filename 05-Killswitch Engage-Prelude.wav

Pre-gap length 0:00:00.01

Peak level 99.4 %
Track quality 100.0 %
Test CRC 326EEF97
Copy CRC 326EEF97
Copy OK

Track 6
Filename 06-Killswitch Engage-Soilborn.wav

Pre-gap length 0:00:00.01

Peak level 99.4 %
Track quality 100.0 %
Test CRC 21C96D12
Copy CRC 21C96D12
Copy OK

Track 7
Filename 07-Killswitch Engage-Numb Sickened Eyes.wav

Pre-gap length 0:00:00.01

Peak level 99.4 %
Track quality 100.0 %
Test CRC 9BB3E8EE
Copy CRC 9BB3E8EE
Copy OK

Track 8
Filename 08-Killswitch Engage-In The Unblind.wav

Pre-gap length 0:00:00.01

Peak level 100.0 %
Track quality 100.0 %
Test CRC D6AFC0C0
Copy CRC D6AFC0C0
Copy OK

Track 9
Filename 09-Killswitch Engage-One Last Sunset.wav

Pre-gap length 0:00:00.01

Peak level 99.4 %
Track quality 100.0 %
Test CRC EF004541
Copy CRC EF004541
Copy OK

No errors occured

End of status report

REM GENRE Hardcore
REM DATE 2000
REM DISCID 7C077709
REM COMMENT “ExactAudioCopy v0.95b4”
PERFORMER “Killswitch Engage”
TITLE “Killswitch Engage”
FILE “01-Killswitch Engage-Temple From The Within.wav” WAVE
TRACK 01 AUDIO
TITLE “Temple From The Within”
PERFORMER “Killswitch Engage”
INDEX 01 00:00:00
FILE “02-Killswitch Engage-Vide Infra.wav” WAVE
TRACK 02 AUDIO
TITLE “Vide Infra”
PERFORMER “Killswitch Engage”
INDEX 01 00:00:00
TRACK 03 AUDIO
TITLE “Irreversal”
PERFORMER “Killswitch Engage”
INDEX 00 03:34:16
FILE “03-Killswitch Engage-Irreversal.wav” WAVE
INDEX 01 00:00:00
TRACK 04 AUDIO
TITLE “Rusted Embrace”
PERFORMER “Killswitch Engage”
INDEX 00 04:17:21
FILE “04-Killswitch Engage-Rusted Embrace.wav” WAVE
INDEX 01 00:00:00
TRACK 05 AUDIO
TITLE “Prelude”
PERFORMER “Killswitch Engage”
INDEX 00 04:25:22
FILE “05-Killswitch Engage-Prelude.wav” WAVE
INDEX 01 00:00:00
TRACK 06 AUDIO
TITLE “Soilborn”
PERFORMER “Killswitch Engage”
INDEX 00 01:55:73
FILE “06-Killswitch Engage-Soilborn.wav” WAVE
INDEX 01 00:00:00
TRACK 07 AUDIO
TITLE “Numb Sickened Eyes”
PERFORMER “Killswitch Engage”
INDEX 00 03:27:71
FILE “07-Killswitch Engage-Numb Sickened Eyes.wav” WAVE
INDEX 01 00:00:00
TRACK 08 AUDIO
TITLE “In The Unblind”
PERFORMER “Killswitch Engage”
INDEX 00 03:35:42
FILE “08-Killswitch Engage-In The Unblind.wav” WAVE
INDEX 01 00:00:00
TRACK 09 AUDIO
TITLE “One Last Sunset”
PERFORMER “Killswitch Engage”
INDEX 00 02:52:38
FILE “09-Killswitch Engage-One Last Sunset.wav” WAVE
INDEX 01 00:00:00


Leave a Reply

Your email address will not be published. Required fields are marked *

Enter the text from the image below
 

This site uses Akismet to reduce spam. Learn how your comment data is processed.