Killswitch Engage – Killswitch Engage (Special Edition)




Artist: Killswitch Engage
Year: 2009
Genre: Metal
Notes: Discogs
Add. Notes: Special Edition
Cover incl.: Yes
Encoder: FLAC
Bitrate: ~1000 kBit/s (44.1 kHz/16 Bit/s)
Log & Cue incl.: Yes
Size: 410,26 MB
Password: “slam” (without ” “)


All Downloads/Hosters are compatible

Download 1
Turbobit.net
NitroFlare.com
KatFile.com
Rapidgator.net
Download 2
Turbobit.net
NitroFlare.com
KatFile.com
Rapidgator.net

Tracklist:

1 - Never Again - 3:09
2 - Starting Over - 3:51
3 - The Forgotten - 3:17
4 - Reckoning - 2:40
5 - The Return - 4:28
6 - A Light In A Darkened World - 2:50
7 - Take Me Away - 2:45
8 - I Would Do Anything - 3:22
9 - Save Me - 3:46
10 - Lost - 3:45
11 - This Is Goodbye - 4:17
12 - In A Dead World - 4:14
13 - Rose Of Sharyn (Live) - 3:48
14 - My Curse (Live) - 4:26
15 - Holy Diver (Live) - 5:07

EAC-Log, CUE-Sheed & NFO:

Click to open spoiler
Exact Audio Copy V0.99 prebeta 5 from 4. May 2009

EAC extraction logfile from 29. June 2009, 20:43

Killswitch Engage / Killswitch Engage [Special Edition]

Used drive : TSSTcorpCDDVDW TS-L632H Adapter: 2 ID: 0

Read mode : Secure
Utilize accurate stream : Yes
Defeat audio cache : Yes
Make use of C2 pointers : No

Read offset correction : 6
Overread into Lead-In and Lead-Out : No
Fill up missing offset samples with silence : Yes
Delete leading and trailing silent blocks : No
Null samples used in CRC calculations : Yes
Used interface : Native Win32 interface for Win NT & 2000
Gap handling : Appended to previous track

Used output format : User Defined Encoder
Selected bitrate : 1024 kBit/s
Quality : High
Add ID3 tag : No
Command line compressor : C:\Program Files\Exact Audio Copy\Flac\flac.exe
Additional command line options : -8 -V -T “ARTIST=%a” -T “TITLE=%t” -T “ALBUM=%g” -T “DATE=%y” -T “TRACKNUMBER=%n” -T “GENRE=%m” -T “COMMENT=EAC FLAC -8” %s

TOC of the extracted CD

Track | Start | Length | Start sector | End sector
———————————————————
1 | 0:00.00 | 3:09.15 | 0 | 14189
2 | 3:09.15 | 3:51.13 | 14190 | 31527
3 | 7:00.28 | 3:17.51 | 31528 | 46353
4 | 10:18.04 | 2:40.72 | 46354 | 58425
5 | 12:59.01 | 4:28.61 | 58426 | 78586
6 | 17:27.62 | 2:50.58 | 78587 | 91394
7 | 20:18.45 | 2:45.66 | 91395 | 103835
8 | 23:04.36 | 3:22.36 | 103836 | 119021
9 | 26:26.72 | 3:46.43 | 119022 | 136014
10 | 30:13.40 | 3:45.01 | 136015 | 152890
11 | 33:58.41 | 4:17.16 | 152891 | 172181
12 | 38:15.57 | 4:14.35 | 172182 | 191266
13 | 42:30.17 | 3:48.25 | 191267 | 208391
14 | 46:18.42 | 4:26.45 | 208392 | 228386
15 | 50:45.12 | 5:07.64 | 228387 | 251475

Track 1

Filename C:\Users\Downloads\2009 Killswitch Engage\01 – Never Again.wav

Pre-gap length 0:00:02.00

Peak level 97.7 %
Track quality 100.0 %
Test CRC 0F790582
Copy CRC 0F790582
Track not present in AccurateRip database
Copy OK

Track 2

Filename C:\Users\Downloads\2009 Killswitch Engage\02 – Starting Over.wav

Peak level 97.7 %
Track quality 100.0 %
Test CRC D02428D5
Copy CRC D02428D5
Track not present in AccurateRip database
Copy OK

Track 3

Filename C:\Users\Downloads\2009 Killswitch Engage\03 – The Forgotten.wav

Peak level 97.7 %
Track quality 100.0 %
Test CRC 5EDFCF1B
Copy CRC 5EDFCF1B
Track not present in AccurateRip database
Copy OK

Track 4

Filename C:\Users\Downloads\2009 Killswitch Engage\04 – Reckoning.wav

Peak level 97.7 %
Track quality 100.0 %
Test CRC AF87F5AA
Copy CRC AF87F5AA
Track not present in AccurateRip database
Copy OK

Track 5

Filename C:\Users\Downloads\2009 Killswitch Engage\05 – The Return.wav

Peak level 97.7 %
Track quality 100.0 %
Test CRC 165692D3
Copy CRC 165692D3
Track not present in AccurateRip database
Copy OK

Track 6

Filename C:\Users\Downloads\2009 Killswitch Engage\06 – A Light In A Darkened World.wav

Peak level 97.7 %
Track quality 100.0 %
Test CRC 50E4ECAC
Copy CRC 50E4ECAC
Track not present in AccurateRip database
Copy OK

Track 7

Filename C:\Users\Downloads\2009 Killswitch Engage\07 – Take Me Away.wav

Peak level 100.0 %
Track quality 100.0 %
Test CRC 52B7A824
Copy CRC 52B7A824
Track not present in AccurateRip database
Copy OK

Track 8

Filename C:\Users\Downloads\2009 Killswitch Engage\08 – I Would Do Anything.wav

Peak level 100.0 %
Track quality 100.0 %
Test CRC E01C75C1
Copy CRC E01C75C1
Track not present in AccurateRip database
Copy OK

Track 9

Filename C:\Users\Downloads\2009 Killswitch Engage\09 – Save Me.wav

Peak level 97.7 %
Track quality 100.0 %
Test CRC C1D50E86
Copy CRC C1D50E86
Track not present in AccurateRip database
Copy OK

Track 10

Filename C:\Users\Downloads\2009 Killswitch Engage\10 – Lost.wav

Peak level 97.7 %
Track quality 100.0 %
Test CRC 76669A8B
Copy CRC 76669A8B
Track not present in AccurateRip database
Copy OK

Track 11

Filename C:\Users\Downloads\2009 Killswitch Engage\11 – This Is Goodbye.wav

Peak level 97.7 %
Track quality 100.0 %
Test CRC 58A39430
Copy CRC 58A39430
Track not present in AccurateRip database
Copy OK

Track 12

Filename C:\Users\Downloads\2009 Killswitch Engage\12 – In A Dead World.wav

Peak level 97.7 %
Track quality 100.0 %
Test CRC 01EE470E
Copy CRC 01EE470E
Track not present in AccurateRip database
Copy OK

Track 13

Filename C:\Users\Downloads\2009 Killswitch Engage\13 – Rose Of Sharyn (Live).wav

Peak level 97.7 %
Track quality 100.0 %
Test CRC A94E8FD1
Copy CRC A94E8FD1
Track not present in AccurateRip database
Copy OK

Track 14

Filename C:\Users\Downloads\2009 Killswitch Engage\14 – My Curse (Live).wav

Peak level 97.7 %
Track quality 100.0 %
Test CRC 84471E3A
Copy CRC 84471E3A
Track not present in AccurateRip database
Copy OK

Track 15

Filename C:\Users\Downloads\2009 Killswitch Engage\15 – Holy Diver (Live).wav

Peak level 97.7 %
Track quality 100.0 %
Test CRC C9ADF945
Copy CRC C9ADF945
Track not present in AccurateRip database
Copy OK

None of the tracks are present in the AccurateRip database

No errors occurred

End of status report

REM GENRE Metal
REM DATE 2009
REM DISCID BE0D190F
REM COMMENT “ExactAudioCopy v0.99pb5”
PERFORMER “KILLSWITCH ENGAGE”
TITLE “Killswitch Engage [Special Edition]”
FILE “01. KILLSWITCH ENGAGE – Never Again.wav” WAVE
TRACK 01 AUDIO
TITLE “Never Again”
PERFORMER “KILLSWITCH ENGAGE”
INDEX 01 00:00:00
FILE “02. KILLSWITCH ENGAGE – Starting Over.wav” WAVE
TRACK 02 AUDIO
TITLE “Starting Over ”
PERFORMER “KILLSWITCH ENGAGE”
INDEX 01 00:00:00
FILE “03. KILLSWITCH ENGAGE – The Forgotten.wav” WAVE
TRACK 03 AUDIO
TITLE “The Forgotten”
PERFORMER “KILLSWITCH ENGAGE”
INDEX 01 00:00:00
FILE “04. KILLSWITCH ENGAGE – Reckoning.wav” WAVE
TRACK 04 AUDIO
TITLE “Reckoning”
PERFORMER “KILLSWITCH ENGAGE”
INDEX 01 00:00:00
FILE “05. KILLSWITCH ENGAGE – The Return.wav” WAVE
TRACK 05 AUDIO
TITLE “The Return”
PERFORMER “KILLSWITCH ENGAGE”
INDEX 01 00:00:00
FILE “06. KILLSWITCH ENGAGE – A Light In A Darkened World.wav” WAVE
TRACK 06 AUDIO
TITLE “A Light In A Darkened World”
PERFORMER “KILLSWITCH ENGAGE”
INDEX 01 00:00:00
FILE “07. KILLSWITCH ENGAGE – Take Me Away.wav” WAVE
TRACK 07 AUDIO
TITLE “Take Me Away”
PERFORMER “KILLSWITCH ENGAGE”
INDEX 01 00:00:00
FILE “08. KILLSWITCH ENGAGE – I Would Do Anything.wav” WAVE
TRACK 08 AUDIO
TITLE “I Would Do Anything”
PERFORMER “KILLSWITCH ENGAGE”
INDEX 01 00:00:00
FILE “09. KILLSWITCH ENGAGE – Save Me.wav” WAVE
TRACK 09 AUDIO
TITLE “Save Me”
PERFORMER “KILLSWITCH ENGAGE”
INDEX 01 00:00:00
FILE “10. KILLSWITCH ENGAGE – Lost.wav” WAVE
TRACK 10 AUDIO
TITLE “Lost”
PERFORMER “KILLSWITCH ENGAGE”
INDEX 01 00:00:00
FILE “11. KILLSWITCH ENGAGE – This Is Goodbye.wav” WAVE
TRACK 11 AUDIO
TITLE “This Is Goodbye”
PERFORMER “KILLSWITCH ENGAGE”
INDEX 01 00:00:00
FILE “12. KILLSWITCH ENGAGE – In A Dead World.wav” WAVE
TRACK 12 AUDIO
TITLE “In A Dead World”
PERFORMER “KILLSWITCH ENGAGE”
INDEX 01 00:00:00
FILE “13. KILLSWITCH ENGAGE – Rose Of Sharyn (Live).wav” WAVE
TRACK 13 AUDIO
TITLE “Rose Of Sharyn (Live)”
PERFORMER “KILLSWITCH ENGAGE”
INDEX 01 00:00:00
FILE “14. KILLSWITCH ENGAGE – My Curse (Live).wav” WAVE
TRACK 14 AUDIO
TITLE “My Curse (Live)”
PERFORMER “KILLSWITCH ENGAGE”
INDEX 01 00:00:00
FILE “15. KILLSWITCH ENGAGE – Holy Diver (Live).wav” WAVE
TRACK 15 AUDIO
TITLE “Holy Diver (Live)”
PERFORMER “KILLSWITCH ENGAGE”
INDEX 01 00:00:00


Leave a Reply

Your email address will not be published. Required fields are marked *

This site uses Akismet to reduce spam. Learn how your comment data is processed.