Killswitch Engage – Killswitch Engage (Remastered)




[Total: 0    Average: 0/5]

Artist: Killswitch Engage
Year: 2000/2005
Genre: Metal
Notes: Discogs
Add. Notes: Remastered
Cover incl.: Yes
Encoder: FLAC
Bitrate: ~1000 kBit/s (44.1 kHz/16 Bit/s)
Log & Cue incl.: Yes
Size: 336,56 MB
Password: “slam” (without ” “)


All Downloads/Hosters are compatible

Download 1
Share-online.biz
KatFile.com
Rapidgator.net
Download 2
Share-online.biz
KatFile.com
Rapidgator.net

Tracklist:

1 - Temple From The Within - 4:07
2 - Vide Infra - 3:32
3 - Irreversal - 4:18
4 - Rusted Embrace - 4:29
5 - Prelude - 1:56
6 - Soilborn - 3:30
7 - Numb Sickened Eyes - 3:38
8 - In The Unblind - 2:58
9 - One Last Sunset - 3:50
1999 Demo
10 - Prelude - 2:04
11 - Soilborn - 3:19
12 - Vide Infra - 3:29
13 - In The Unblind - 2:49

EAC-Log, CUE-Sheed & NFO:

Click to open spoiler
Exact Audio Copy V0.99 prebeta 4 from 23. January 2008

EAC extraction logfile from 12. October 2008, 15:48

Killswitch Engage / Killswitch Engage

Used drive : HL-DT-STCD-RW GCE-8481B Adapter: 1 ID: 1

Read mode : Secure
Utilize accurate stream : Yes
Defeat audio cache : Yes
Make use of C2 pointers : No

Read offset correction : 6
Overread into Lead-In and Lead-Out : No
Fill up missing offset samples with silence : Yes
Delete leading and trailing silent blocks : No
Null samples used in CRC calculations : Yes
Used interface : Native Win32 interface for Win NT & 2000
Gap handling : Appended to previous track

Used output format : User Defined Encoder
Selected bitrate : 1024 kBit/s
Quality : High
Add ID3 tag : No
Command line compressor : C:\Program Files\FLAC\flac.exe
Additional command line options : -V -8 -T “artist=%a” -T “title=%t” -T “album=%g” -T “date=%y” -T “tracknumber=%n” -T “genre=%m” %s

TOC of the extracted CD

Track | Start | Length | Start sector | End sector
———————————————————
1 | 0:00.00 | 4:07.06 | 0 | 18530
2 | 4:07.06 | 3:32.29 | 18531 | 34459
3 | 7:39.35 | 4:17.67 | 34460 | 53801
4 | 11:57.27 | 4:29.37 | 53802 | 74013
5 | 16:26.64 | 1:55.57 | 74014 | 82695
6 | 18:22.46 | 3:29.73 | 82696 | 98443
7 | 21:52.44 | 3:38.12 | 98444 | 114805
8 | 25:30.56 | 2:57.42 | 114806 | 128122
9 | 28:28.23 | 3:49.71 | 128123 | 145368
10 | 32:18.19 | 2:03.42 | 145369 | 154635
11 | 34:21.61 | 3:19.14 | 154636 | 169574
12 | 37:41.00 | 3:28.46 | 169575 | 185220
13 | 41:09.46 | 2:48.54 | 185221 | 197874

Track 1

Filename C:\01 – Temple From The Within.wav

Pre-gap length 0:00:02.00

Peak level 99.1 %
Track quality 100.0 %
Test CRC A4EC1B90
Copy CRC A4EC1B90
Copy OK

Track 2

Filename C:\02 – Vide Infra.wav

Peak level 99.1 %
Track quality 100.0 %
Test CRC 4BCEDC7B
Copy CRC 4BCEDC7B
Copy OK

Track 3

Filename C:\03 – Irreversal.wav

Peak level 99.1 %
Track quality 100.0 %
Test CRC 85B9D240
Copy CRC 85B9D240
Copy OK

Track 4

Filename C:\04 – Rusted Embrace.wav

Peak level 99.1 %
Track quality 100.0 %
Test CRC F3A4E460
Copy CRC F3A4E460
Copy OK

Track 5

Filename C:\05 – Prelude.wav

Peak level 99.1 %
Track quality 100.0 %
Test CRC 09ED14EC
Copy CRC 09ED14EC
Copy OK

Track 6

Filename C:\06 – Soilborn.wav

Peak level 99.1 %
Track quality 100.0 %
Test CRC 99CA42DB
Copy CRC 99CA42DB
Copy OK

Track 7

Filename C:\07 – Numb Sickened Eyes.wav

Peak level 99.1 %
Track quality 99.9 %
Test CRC CF85AE93
Copy CRC CF85AE93
Copy OK

Track 8

Filename C:\08 – In The Unblind.wav

Peak level 99.1 %
Track quality 100.0 %
Test CRC 10739DAD
Copy CRC 10739DAD
Copy OK

Track 9

Filename C:\09 – One Last Sunset.wav

Peak level 98.5 %
Track quality 100.0 %
Test CRC D830128F
Copy CRC D830128F
Copy OK

Track 10

Filename C:\10 – Prelude (1999 Demo).wav

Peak level 94.3 %
Track quality 100.0 %
Test CRC 1546768B
Copy CRC 1546768B
Copy OK

Track 11

Filename C:\11 – Soilborn (1999 Demo).wav

Peak level 94.9 %
Track quality 100.0 %
Test CRC CA988266
Copy CRC CA988266
Copy OK

Track 12

Filename C:\12 – Vide Infra (1999 Demo).wav

Peak level 97.1 %
Track quality 100.0 %
Test CRC FF1082F7
Copy CRC FF1082F7
Copy OK

Track 13

Filename C:\13 – In The Unblind (1999 Demo).wav

Peak level 99.0 %
Track quality 100.0 %
Test CRC 20502045
Copy CRC 20502045
Copy OK

No errors occurred

End of status report

REM GENRE Metal
REM DATE 2000
REM DISCID 9D0A4E0D
REM COMMENT “ExactAudioCopy v0.99pb4”
PERFORMER “Killswitch Engage”
TITLE “Killswitch Engage”
FILE “01 – Temple From The Within.wav” WAVE
TRACK 01 AUDIO
TITLE “Temple From The Within”
PERFORMER “Killswitch Engage”
INDEX 01 00:00:00
FILE “02 – Vide Infra.wav” WAVE
TRACK 02 AUDIO
TITLE “Vide Infra”
PERFORMER “Killswitch Engage”
INDEX 01 00:00:00
FILE “03 – Irreversal.wav” WAVE
TRACK 03 AUDIO
TITLE “Irreversal”
PERFORMER “Killswitch Engage”
INDEX 01 00:00:00
FILE “04 – Rusted Embrace.wav” WAVE
TRACK 04 AUDIO
TITLE “Rusted Embrace”
PERFORMER “Killswitch Engage”
INDEX 01 00:00:00
FILE “05 – Prelude.wav” WAVE
TRACK 05 AUDIO
TITLE “Prelude”
PERFORMER “Killswitch Engage”
INDEX 01 00:00:00
FILE “06 – Soilborn.wav” WAVE
TRACK 06 AUDIO
TITLE “Soilborn”
PERFORMER “Killswitch Engage”
INDEX 01 00:00:00
FILE “07 – Numb Sickened Eyes.wav” WAVE
TRACK 07 AUDIO
TITLE “Numb Sickened Eyes”
PERFORMER “Killswitch Engage”
INDEX 01 00:00:00
FILE “08 – In The Unblind.wav” WAVE
TRACK 08 AUDIO
TITLE “In The Unblind”
PERFORMER “Killswitch Engage”
INDEX 01 00:00:00
FILE “09 – One Last Sunset.wav” WAVE
TRACK 09 AUDIO
TITLE “One Last Sunset”
PERFORMER “Killswitch Engage”
INDEX 01 00:00:00
FILE “10 – Prelude (1999 Demo).wav” WAVE
TRACK 10 AUDIO
TITLE “Prelude (1999 Demo)”
PERFORMER “Killswitch Engage”
INDEX 01 00:00:00
FILE “11 – Soilborn (1999 Demo).wav” WAVE
TRACK 11 AUDIO
TITLE “Soilborn (1999 Demo)”
PERFORMER “Killswitch Engage”
INDEX 01 00:00:00
FILE “12 – Vide Infra (1999 Demo).wav” WAVE
TRACK 12 AUDIO
TITLE “Vide Infra (1999 Demo)”
PERFORMER “Killswitch Engage”
INDEX 01 00:00:00
FILE “13 – In The Unblind (1999 Demo).wav” WAVE
TRACK 13 AUDIO
TITLE “In The Unblind (1999 Demo)”
PERFORMER “Killswitch Engage”
INDEX 01 00:00:00


Spread the Download

Leave a Reply

Your email address will not be published. Required fields are marked *

Enter the text from the image below
 

This site uses Akismet to reduce spam. Learn how your comment data is processed.