Killswitch Engage – The End Of Heartache (Special Edition)




[Total: 0    Average: 0/5]

Artist: Killswitch Engage
Year: 2004
Genre: Metal
Notes: Discogs
Add. Notes: Special Edition
Cover incl.: No
Encoder: FLAC
Bitrate: ~900 kBit/s (44.1 kHz/16 Bit/s)
Log & Cue incl.: Yes
Size: 489,79 MB
Password: “slam” (without ” “)


All Downloads/Hosters are compatible

Download 1
Share-online.biz
KatFile.com
Rapidgator.net
Download 2
Share-online.biz
KatFile.com
Rapidgator.net

Tracklist:

1-01 - A Bid Farewell - 3:55
1-02 - Take This Oath - 3:46
1-03 - When Darkness Falls - 3:52
1-04 - Rose Of Sharyn - 3:36
1-05 - Inhale - 1:15
1-06 - Breathe Life - 3:18
1-07 - The End Of Heartache - 4:58
1-08 - Declaration - 3:01
1-09 - World Ablaze - 4:59
1-10 - And Embers Rise - 1:11
1-11 - Wasted Sacrifice - 4:18
1-12 - Hope Is... - 4:19
2-01 - Irreversal - 3:50
2-02 - My Life For Yours - 3:35
2-03 - The End Of Heartache? (Resident Evil Version) - 
4:05
2-04 - Life To Lifeless (Live) - 3:23
2-05 - Fixation On The Darkness (Live) ? - 3:40
2-06 - My Last Serenade (Live) - 4:01

EAC-Log, CUE-Sheed & NFO:

Click to open spoiler
Exact Audio Copy V0.99 prebeta 4 from 23. January 2008

EAC extraction logfile from 12. October 2008, 2:01

Killswitch Engage / The End Of Heartache

Used drive : HL-DT-STCD-RW GCE-8481B Adapter: 1 ID: 1

Read mode : Secure
Utilize accurate stream : Yes
Defeat audio cache : Yes
Make use of C2 pointers : No

Read offset correction : 6
Overread into Lead-In and Lead-Out : No
Fill up missing offset samples with silence : Yes
Delete leading and trailing silent blocks : No
Null samples used in CRC calculations : Yes
Used interface : Native Win32 interface for Win NT & 2000
Gap handling : Appended to previous track

Used output format : User Defined Encoder
Selected bitrate : 1024 kBit/s
Quality : High
Add ID3 tag : No
Command line compressor : C:\Program Files\FLAC\flac.exe
Additional command line options : -V -8 -T “artist=%a” -T “title=%t” -T “album=%g” -T “date=%y” -T “tracknumber=%n” -T “genre=%m” %s

TOC of the extracted CD

Track | Start | Length | Start sector | End sector
———————————————————
1 | 0:00.00 | 3:55.42 | 0 | 17666
2 | 3:55.42 | 3:46.50 | 17667 | 34666
3 | 7:42.17 | 3:52.41 | 34667 | 52107
4 | 11:34.58 | 3:36.23 | 52108 | 68330
5 | 15:11.06 | 1:15.01 | 68331 | 73956
6 | 16:26.07 | 3:18.41 | 73957 | 88847
7 | 19:44.48 | 4:58.08 | 88848 | 111205
8 | 24:42.56 | 3:01.30 | 111206 | 124810
9 | 27:44.11 | 4:59.73 | 124811 | 147308
10 | 32:44.09 | 1:11.26 | 147309 | 152659
11 | 33:55.35 | 4:18.69 | 152660 | 172078
12 | 38:14.29 | 4:19.66 | 172079 | 191569

Track 1

Filename C:\01 – A Bid Farewell.wav

Pre-gap length 0:00:02.00

Peak level 100.0 %
Track quality 100.0 %
Test CRC 06972B94
Copy CRC 06972B94
Copy OK

Track 2

Filename C:\02 – Take This Oath.wav

Peak level 100.0 %
Track quality 100.0 %
Test CRC 24CF9761
Copy CRC 24CF9761
Copy OK

Track 3

Filename C:\03 – When Darkness Falls.wav

Peak level 100.0 %
Track quality 100.0 %
Test CRC 2B4E3D46
Copy CRC 2B4E3D46
Copy OK

Track 4

Filename C:\04 – Rose Of Sharyn.wav

Peak level 100.0 %
Track quality 100.0 %
Test CRC D3416FDE
Copy CRC D3416FDE
Copy OK

Track 5

Filename C:\05 – Inhale.wav

Peak level 69.5 %
Track quality 100.0 %
Test CRC EA9A2056
Copy CRC EA9A2056
Copy OK

Track 6

Filename C:\06 – Breathe Life.wav

Peak level 100.0 %
Track quality 99.9 %
Test CRC 9F1D5ED6
Copy CRC 9F1D5ED6
Copy OK

Track 7

Filename C:\07 – The End Of Heartache.wav

Peak level 100.0 %
Track quality 100.0 %
Test CRC 2D8EBF8C
Copy CRC 2D8EBF8C
Copy OK

Track 8

Filename C:\08 – Declaration.wav

Peak level 100.0 %
Track quality 100.0 %
Test CRC 477CB4A6
Copy CRC 477CB4A6
Copy OK

Track 9

Filename C:\09 – World Ablaze.wav

Peak level 100.0 %
Track quality 100.0 %
Test CRC 04E23F22
Copy CRC 04E23F22
Copy OK

Track 10

Filename C:\10 – And Embers Rise.wav

Peak level 78.2 %
Track quality 100.0 %
Test CRC 89CDDD49
Copy CRC 89CDDD49
Copy OK

Track 11

Filename C:\11 – Wasted Sacrifice.wav

Peak level 100.0 %
Track quality 100.0 %
Test CRC E88D2A64
Copy CRC E88D2A64
Copy OK

Track 12

Filename C:\12 – Hope Is….wav

Peak level 100.0 %
Track quality 100.0 %
Test CRC E797D382
Copy CRC E797D382
Copy OK

No errors occurred

End of status report

REM GENRE Metal
REM DATE 2004
REM DISCID C009FA0C
REM COMMENT “ExactAudioCopy v0.99pb4”
PERFORMER “Killswitch Engage”
TITLE “The End Of Heartache”
FILE “01 – A Bid Farewell.wav” WAVE
TRACK 01 AUDIO
TITLE “A Bid Farewell”
PERFORMER “Killswitch Engage”
INDEX 01 00:00:00
FILE “02 – Take This Oath.wav” WAVE
TRACK 02 AUDIO
TITLE “Take This Oath”
PERFORMER “Killswitch Engage”
INDEX 01 00:00:00
FILE “03 – When Darkness Falls.wav” WAVE
TRACK 03 AUDIO
TITLE “When Darkness Falls”
PERFORMER “Killswitch Engage”
INDEX 01 00:00:00
FILE “04 – Rose Of Sharyn.wav” WAVE
TRACK 04 AUDIO
TITLE “Rose Of Sharyn”
PERFORMER “Killswitch Engage”
INDEX 01 00:00:00
FILE “05 – Inhale.wav” WAVE
TRACK 05 AUDIO
TITLE “Inhale”
PERFORMER “Killswitch Engage”
INDEX 01 00:00:00
FILE “06 – Breathe Life.wav” WAVE
TRACK 06 AUDIO
TITLE “Breathe Life”
PERFORMER “Killswitch Engage”
INDEX 01 00:00:00
FILE “07 – The End Of Heartache.wav” WAVE
TRACK 07 AUDIO
TITLE “The End Of Heartache”
PERFORMER “Killswitch Engage”
INDEX 01 00:00:00
FILE “08 – Declaration.wav” WAVE
TRACK 08 AUDIO
TITLE “Declaration”
PERFORMER “Killswitch Engage”
INDEX 01 00:00:00
FILE “09 – World Ablaze.wav” WAVE
TRACK 09 AUDIO
TITLE “World Ablaze”
PERFORMER “Killswitch Engage”
INDEX 01 00:00:00
FILE “10 – And Embers Rise.wav” WAVE
TRACK 10 AUDIO
TITLE “And Embers Rise”
PERFORMER “Killswitch Engage”
INDEX 01 00:00:00
FILE “11 – Wasted Sacrifice.wav” WAVE
TRACK 11 AUDIO
TITLE “Wasted Sacrifice”
PERFORMER “Killswitch Engage”
INDEX 01 00:00:00
FILE “12 – Hope Is….wav” WAVE
TRACK 12 AUDIO
TITLE “Hope Is…”
PERFORMER “Killswitch Engage”
INDEX 01 00:00:00


Spread the Download

Leave a Reply

Your email address will not be published. Required fields are marked *

Enter the text from the image below
 

This site uses Akismet to reduce spam. Learn how your comment data is processed.