Killswitch Engage – As Daylight Dies (Special Edition)




[Total: 0    Average: 0/5]

Artist: Killswitch Engage
Year: 2007
Genre: Metal
Notes: Discogs
Add. Notes: Special Edition
Cover incl.: Yes
Encoder: FLAC
Bitrate: ~1000 kBit/s (44.1 kHz/16 Bit/s)
Log & Cue incl.: Yes
Size: 443,3 MB
Password: “slam” (without ” “)


All Downloads/Hosters are compatible

Download 1
Share-online.biz
KatFile.com
Rapidgator.net
NitroFlare.com
Download 2
Share-online.biz
KatFile.com
Rapidgator.net
NitroFlare.com

Tracklist:

1  - Daylight Dies  - 4:05
2  - This Is Absolution  - 3:34
3  - The Arms Of Sorrow  - 3:44
4  - Unbroken  - 3:08
5  - My Curse  - 4:04
6  - For You  - 4:03
7  - Still Beats Your Name  - 3:19
8  - Eye Of The Storm  - 3:56
9  - Break The Silence  - 4:32
10  - Desperate Times  - 4:25
11  - Reject Yourself  - 4:48
 - Bonus Tracks
12  - Be One  - 3:31
13  - Let The Bridges Burn  - 4:29
14  - This Fire  - 3:09
15  - Holy Diver  - 4:10

EAC-Log, CUE-Sheed & NFO:

Click to open spoiler
EAC extraction logfile from 7. December 2007, 19:53 for CD
Killswitch Engage / As Daylight Dies

Used drive : _NEC DVD_RW ND-2500A Adapter: 3 ID: 0
Read mode : Secure with NO C2, accurate stream, disable cache
Read offset correction : 48
Overread into Lead-In and Lead-Out : No

Used output format : C:\Program Files\FLAC\flac.exe (User Defined Encoder)
192 kBit/s
Additional command line options : -V -8 -T “artist=%a” -T “title=%t” -T “album=%g” -T “date=%y” -T “tracknumber=%n” -T “genre=%m” %s

Other options :
Fill up missing offset samples with silence : Yes
Delete leading and trailing silent blocks : No
Native Win32 interface for Win NT & 2000

Track 1
Filename C:\Documents and Settings\Mark Evans\Desktop\Killswitch Engage – As Daylight Dies\01 – Killswitch Engage – Daylight Dies – Killswitch Engage.wav

Pre-gap length 0:00:02.00

Peak level 100.0 %
Track quality 100.0 %
Test CRC D126094B
Copy CRC D126094B
Copy OK

Track 2
Filename C:\Documents and Settings\Mark Evans\Desktop\Killswitch Engage – As Daylight Dies\02 – Killswitch Engage – This is Absolution – Killswitch Engage.wav

Peak level 100.0 %
Track quality 100.0 %
Test CRC D278A92B
Copy CRC D278A92B
Copy OK

Track 3
Filename C:\Documents and Settings\Mark Evans\Desktop\Killswitch Engage – As Daylight Dies\03 – Killswitch Engage – The Arms of Sorrow – Killswitch Engage.wav

Peak level 100.0 %
Track quality 99.9 %
Test CRC EFEA8ED4
Copy CRC EFEA8ED4
Copy OK

Track 4
Filename C:\Documents and Settings\Mark Evans\Desktop\Killswitch Engage – As Daylight Dies\04 – Killswitch Engage – Unbroken – Killswitch Engage.wav

Missing samples
Peak level 0.0 %
Track quality 97.6 %
Test CRC 5BF4ED09
Copy CRC 5BF4ED09
Copy finished

Track 5
Filename C:\Documents and Settings\Mark Evans\Desktop\Killswitch Engage – As Daylight Dies\05 – Killswitch Engage – My Curse – Killswitch Engage.wav

Peak level 100.0 %
Track quality 100.0 %
Test CRC 9F582ABA
Copy CRC 9F582ABA
Copy OK

Track 6
Filename C:\Documents and Settings\Mark Evans\Desktop\Killswitch Engage – As Daylight Dies\06 – Killswitch Engage – For You – Killswitch Engage.wav

Peak level 100.0 %
Track quality 99.9 %
Test CRC 162178B3
Copy CRC 162178B3
Copy OK

Track 7
Filename C:\Documents and Settings\Mark Evans\Desktop\Killswitch Engage – As Daylight Dies\07 – Killswitch Engage – Still Beats Your Name – Killswitch Engage.wav

Peak level 100.0 %
Track quality 100.0 %
Test CRC 0793F192
Copy CRC 0793F192
Copy OK

Track 8
Filename C:\Documents and Settings\Mark Evans\Desktop\Killswitch Engage – As Daylight Dies\08 – Killswitch Engage – Eye of the Storm – Killswitch Engage.wav

Peak level 100.0 %
Track quality 100.0 %
Test CRC 01443214
Copy CRC 01443214
Copy OK

Track 9
Filename C:\Documents and Settings\Mark Evans\Desktop\Killswitch Engage – As Daylight Dies\09 – Killswitch Engage – Break The Silence – Killswitch Engage.wav

Peak level 100.0 %
Track quality 100.0 %
Test CRC B9E2D827
Copy CRC B9E2D827
Copy OK

Track 10
Filename C:\Documents and Settings\Mark Evans\Desktop\Killswitch Engage – As Daylight Dies\10 – Killswitch Engage – Desperate Times – Killswitch Engage.wav

Peak level 100.0 %
Track quality 100.0 %
Test CRC E683E090
Copy CRC E683E090
Copy OK

Track 11
Filename C:\Documents and Settings\Mark Evans\Desktop\Killswitch Engage – As Daylight Dies\11 – Killswitch Engage – Reject Yourself – Killswitch Engage.wav

Peak level 100.0 %
Track quality 99.8 %
Test CRC 89B275F4
Copy CRC 89B275F4
Copy OK

Track 12
Filename C:\Documents and Settings\Mark Evans\Desktop\Killswitch Engage – As Daylight Dies\12 – Killswitch Engage – Be One – Killswitch Engage.wav

Pre-gap length 0:00:03.00

Peak level 100.0 %
Track quality 100.0 %
Test CRC 34F36F75
Copy CRC 34F36F75
Copy OK

Track 13
Filename C:\Documents and Settings\Mark Evans\Desktop\Killswitch Engage – As Daylight Dies\13 – Killswitch Engage – Let The Bridges Burn – Killswitch Engage.wav

Peak level 100.0 %
Track quality 100.0 %
Test CRC ED9E956A
Copy CRC ED9E956A
Copy OK

Track 14
Filename C:\Documents and Settings\Mark Evans\Desktop\Killswitch Engage – As Daylight Dies\14 – Killswitch Engage – This Fire – Killswitch Engage.wav

Peak level 96.6 %
Track quality 100.0 %
Test CRC E0218E6F
Copy CRC E0218E6F
Copy OK

Track 15
Filename C:\Documents and Settings\Mark Evans\Desktop\Killswitch Engage – As Daylight Dies\15 – Killswitch Engage – Holy Driver – Killswitch Engage.wav

Pre-gap length 0:00:00.22

Peak level 96.6 %
Track quality 100.0 %
Test CRC 05B58B21
Copy CRC 05B58B21
Copy OK

There were errors

End of status report

————————————————————

EAC extraction logfile from 8. December 2007, 3:07 for CD
Killswitch Engage / As Daylight Dies

Used drive : _NEC DVD_RW ND-2500A Adapter: 3 ID: 0
Read mode : Secure with NO C2, accurate stream, disable cache
Read offset correction : 48
Overread into Lead-In and Lead-Out : No

Used output format : C:\Program Files\FLAC\flac.exe (User Defined Encoder)
192 kBit/s
Additional command line options : -V -8 -T “artist=%a” -T “title=%t” -T “album=%g” -T “date=%y” -T “tracknumber=%n” -T “genre=%m” %s

Other options :
Fill up missing offset samples with silence : Yes
Delete leading and trailing silent blocks : No
Native Win32 interface for Win NT & 2000

Track 4
Filename C:\Documents and Settings\Mark Evans\Desktop\Killswitch Engage – As Daylight Dies\04 – Killswitch Engage – Unbroken – Killswitch Engage.wav

Peak level 100.0 %
Track quality 98.0 %
Test CRC 5BF4ED09
Copy CRC 7A17AE72
Copy OK

No errors occured

End of status report

————————————————————

EAC extraction logfile from 8. December 2007, 12:48 for CD
Killswitch Engage / As Daylight Dies

Used drive : _NEC DVD_RW ND-2500A Adapter: 3 ID: 0
Read mode : Secure with NO C2, accurate stream, disable cache
Read offset correction : 48
Overread into Lead-In and Lead-Out : No

Used output format : C:\Program Files\FLAC\flac.exe (User Defined Encoder)
192 kBit/s
Additional command line options : -V -8 -T “artist=%a” -T “title=%t” -T “album=%g” -T “date=%y” -T “tracknumber=%n” -T “genre=%m” %s

Other options :
Fill up missing offset samples with silence : Yes
Delete leading and trailing silent blocks : No
Native Win32 interface for Win NT & 2000

Track 4
Filename C:\Documents and Settings\Mark Evans\Desktop\Killswitch Engage – As Daylight Dies\04 – Killswitch Engage – Unbroken – Killswitch Engage.wav

Peak level 100.0 %
Track quality 100.0 %
Test CRC 5BF4ED09
Copy CRC 5BF4ED09
Copy OK

No errors occured

End of status report

REM GENRE Metal
REM DATE 2007
REM DISCID D40DD60F
REM COMMENT “ExactAudioCopy v0.95b4”
CATALOG 0016861798628
PERFORMER “Killswitch Engage”
TITLE “As Daylight Dies”
FILE “01 – Killswitch Engage – Daylight Dies – Killswitch Engage.wav” WAVE
TRACK 01 AUDIO
TITLE “Daylight Dies – Killswitch Engage”
PERFORMER “Killswitch Engage”
ISRC NLA320682668
INDEX 01 00:00:00
FILE “02 – Killswitch Engage – This is Absolution – Killswitch Engage.wav” WAVE
TRACK 02 AUDIO
TITLE “This is Absolution – Killswitch Engage”
PERFORMER “Killswitch Engage”
ISRC 000000000000
INDEX 01 00:00:00
FILE “03 – Killswitch Engage – The Arms of Sorrow – Killswitch Engage.wav” WAVE
TRACK 03 AUDIO
TITLE “The Arms of Sorrow – Killswitch Engage”
PERFORMER “Killswitch Engage”
ISRC NLA320682667
INDEX 01 00:00:00
FILE “04 – Killswitch Engage – Unbroken – Killswitch Engage.wav” WAVE
TRACK 04 AUDIO
TITLE “Unbroken – Killswitch Engage”
PERFORMER “Killswitch Engage”
ISRC NLA320682680
INDEX 01 00:00:00
FILE “05 – Killswitch Engage – My Curse – Killswitch Engage.wav” WAVE
TRACK 05 AUDIO
TITLE “My Curse – Killswitch Engage”
PERFORMER “Killswitch Engage”
ISRC NLA320682675
INDEX 01 00:00:00
FILE “06 – Killswitch Engage – For You – Killswitch Engage.wav” WAVE
TRACK 06 AUDIO
TITLE “For You – Killswitch Engage”
PERFORMER “Killswitch Engage”
ISRC NLA320682672
INDEX 01 00:00:00
FILE “07 – Killswitch Engage – Still Beats Your Name – Killswitch Engage.wav” WAVE
TRACK 07 AUDIO
TITLE “Still Beats Your Name – Killswitch Engage”
PERFORMER “Killswitch Engage”
ISRC NLA320682677
INDEX 01 00:00:00
FILE “08 – Killswitch Engage – Eye of the Storm – Killswitch Engage.wav” WAVE
TRACK 08 AUDIO
TITLE “Eye of the Storm – Killswitch Engage”
PERFORMER “Killswitch Engage”
ISRC NLA320682679
INDEX 01 00:00:00
FILE “09 – Killswitch Engage – Break The Silence – Killswitch Engage.wav” WAVE
TRACK 09 AUDIO
TITLE “Break The Silence – Killswitch Engage”
PERFORMER “Killswitch Engage”
ISRC NLA320682669
INDEX 01 00:00:00
FILE “10 – Killswitch Engage – Desperate Times – Killswitch Engage.wav” WAVE
TRACK 10 AUDIO
TITLE “Desperate Times – Killswitch Engage”
PERFORMER “Killswitch Engage”
ISRC NLA320682671
INDEX 01 00:00:00
FILE “11 – Killswitch Engage – Reject Yourself – Killswitch Engage.wav” WAVE
TRACK 11 AUDIO
TITLE “Reject Yourself – Killswitch Engage”
PERFORMER “Killswitch Engage”
ISRC NLA320682676
INDEX 01 00:00:00
TRACK 12 AUDIO
TITLE “Be One – Killswitch Engage”
PERFORMER “Killswitch Engage”
ISRC NLA320682684
INDEX 00 04:45:06
FILE “12 – Killswitch Engage – Be One – Killswitch Engage.wav” WAVE
INDEX 01 00:00:00
FILE “13 – Killswitch Engage – Let The Bridges Burn – Killswitch Engage.wav” WAVE
TRACK 13 AUDIO
TITLE “Let The Bridges Burn – Killswitch Engage”
PERFORMER “Killswitch Engage”
ISRC NLA320682976
INDEX 01 00:00:00
FILE “14 – Killswitch Engage – This Fire – Killswitch Engage.wav” WAVE
TRACK 14 AUDIO
TITLE “This Fire – Killswitch Engage”
PERFORMER “Killswitch Engage”
ISRC NLA320785928
INDEX 01 00:00:00
TRACK 15 AUDIO
TITLE “Holy Driver – Killswitch Engage”
PERFORMER “Killswitch Engage”
ISRC NLA320785927
INDEX 00 03:09:33
FILE “15 – Killswitch Engage – Holy Driver – Killswitch Engage.wav” WAVE
INDEX 01 00:00:00


Spread the Download

Leave a Reply

Your email address will not be published. Required fields are marked *

Enter the text from the image below
 

This site uses Akismet to reduce spam. Learn how your comment data is processed.