Killswitch Engage – Alive Or Just Breathing




[Total: 0    Average: 0/5]

Artist: Killswitch Engage
Year: 2005
Genre: Metal
Notes: Discogs
Add. Notes:
Cover incl.: Yes
Encoder: FLAC
Bitrate: ~800 kBit/s (44.1 kHz/16 Bit/s)
Log & Cue incl.: Yes
Size: 532,02 MB
Password: “slam” (without ” “)


All Downloads/Hosters are compatible

Download 1
Share-online.biz
KatFile.com
Rapidgator.net
Download 2
Share-online.biz
KatFile.com
Rapidgator.net

Tracklist:

1-1 - Numbered Days - 3:35
1-2 - Self Revolution - 3:08
1-3 - Fixation On The Darkness - 3:37
1-4 - My Last Serenade - 4:13
1-5 - Life To Lifeless - 3:17
1-6 - Just Barely Breathing - 5:42
1-7 - To The Sons Of Man - 1:58
1-8 - Temple From The Within - 4:04
1-9 - The Element Of One - 4:08
1-10 - Vide Infra - 3:28
1-11 - Without A Name - 1:45
1-12 - Rise Inside - 5:54

Bonus CD
2-1 - In The Unblind - 2:29
2-2 - When The Balance Is Broken - 4:35
2-3 - Untitled And Unloved - 3:21
2-4 - Numbered Days (Demo) - 3:38
2-5 - Transfiguration (aka Fixation On The Darkness - 
Demo) - 3:39
2-6 - Just Barely Breathing (Demo) - 5:14
2-7 - Fixation On The Darkness - 3:39
2-8 - AOJB Studio Out Takes - 1:20

EAC-Log, CUE-Sheed & NFO:

Click to open spoiler
Exact Audio Copy V0.99 prebeta 4 from 23. January 2008

EAC extraction logfile from 12. October 2008, 16:23

Killswitch Engage / Alive Or Just Breathing

Used drive : HL-DT-STCD-RW GCE-8481B Adapter: 1 ID: 1

Read mode : Secure
Utilize accurate stream : Yes
Defeat audio cache : Yes
Make use of C2 pointers : No

Read offset correction : 6
Overread into Lead-In and Lead-Out : No
Fill up missing offset samples with silence : Yes
Delete leading and trailing silent blocks : No
Null samples used in CRC calculations : Yes
Used interface : Native Win32 interface for Win NT & 2000
Gap handling : Appended to previous track

Used output format : User Defined Encoder
Selected bitrate : 1024 kBit/s
Quality : High
Add ID3 tag : No
Command line compressor : C:\Program Files\FLAC\flac.exe
Additional command line options : -V -8 -T “artist=%a” -T “title=%t” -T “album=%g” -T “date=%y” -T “tracknumber=%n” -T “genre=%m” %s

TOC of the extracted CD

Track | Start | Length | Start sector | End sector
———————————————————
1 | 0:00.00 | 3:35.17 | 0 | 16141
2 | 3:35.17 | 3:08.69 | 16142 | 30310
3 | 6:44.11 | 3:37.73 | 30311 | 46658
4 | 10:22.09 | 4:13.57 | 46659 | 65690
5 | 14:35.66 | 3:17.07 | 65691 | 80472
6 | 17:52.73 | 5:42.10 | 80473 | 106132
7 | 23:35.08 | 1:58.01 | 106133 | 114983
8 | 25:33.09 | 4:04.19 | 114984 | 133302
9 | 29:37.28 | 4:08.55 | 133303 | 151957
10 | 33:46.08 | 3:28.56 | 151958 | 167613
11 | 37:14.64 | 1:45.04 | 167614 | 175492
12 | 38:59.68 | 5:54.70 | 175493 | 202112

Track 1

Filename C:\01 – Numbered Days.wav

Pre-gap length 0:00:02.00

Peak level 99.4 %
Track quality 100.0 %
Test CRC 55EE71A4
Copy CRC 55EE71A4
Copy OK

Track 2

Filename C:\02 – Self Revolution.wav

Peak level 99.4 %
Track quality 99.9 %
Test CRC D3C3E3EC
Copy CRC D3C3E3EC
Copy OK

Track 3

Filename C:\03 – Fixation On The Darkness.wav

Peak level 99.4 %
Track quality 100.0 %
Test CRC B3D9BC5F
Copy CRC B3D9BC5F
Copy OK

Track 4

Filename C:\04 – My Last Serenade.wav

Pre-gap length 0:00:02.00

Peak level 99.4 %
Track quality 100.0 %
Test CRC AD3AC6AE
Copy CRC AD3AC6AE
Copy OK

Track 5

Filename C:\05 – Life To Lifeless.wav

Peak level 99.4 %
Track quality 100.0 %
Test CRC B32DB6DB
Copy CRC B32DB6DB
Copy OK

Track 6

Filename C:\06 – Just Barely Breathing.wav

Pre-gap length 0:00:00.04

Peak level 99.4 %
Track quality 100.0 %
Test CRC 8E2E03D0
Copy CRC 8E2E03D0
Copy OK

Track 7

Filename C:\07 – To The Sons Of Man.wav

Peak level 99.9 %
Track quality 100.0 %
Test CRC 1BC9B79A
Copy CRC 1BC9B79A
Copy OK

Track 8

Filename C:\08 – Temple From The Within.wav

Peak level 99.4 %
Track quality 100.0 %
Test CRC 22FC4D5B
Copy CRC 22FC4D5B
Copy OK

Track 9

Filename C:\09 – The Element Of One.wav

Peak level 99.4 %
Track quality 99.9 %
Test CRC 48F9942F
Copy CRC 48F9942F
Copy OK

Track 10

Filename C:\10 – Vide Infra.wav

Peak level 99.9 %
Track quality 100.0 %
Test CRC 39FD133D
Copy CRC 39FD133D
Copy OK

Track 11

Filename C:\11 – Without A Name.wav

Pre-gap length 0:00:01.02

Peak level 37.2 %
Track quality 100.0 %
Test CRC F600C666
Copy CRC F600C666
Copy OK

Track 12

Filename C:\12 – Rise Inside.wav

Peak level 99.8 %
Track quality 100.0 %
Test CRC 7787A1B1
Copy CRC 7787A1B1
Copy OK

No errors occurred

End of status report

Exact Audio Copy V0.99 prebeta 4 from 23. January 2008

EAC extraction logfile from 12. October 2008, 16:59

Killswitch Engage / Alive or Just Breathing

Used drive : HL-DT-STCD-RW GCE-8481B Adapter: 1 ID: 1

Read mode : Secure
Utilize accurate stream : Yes
Defeat audio cache : Yes
Make use of C2 pointers : No

Read offset correction : 6
Overread into Lead-In and Lead-Out : No
Fill up missing offset samples with silence : Yes
Delete leading and trailing silent blocks : No
Null samples used in CRC calculations : Yes
Used interface : Native Win32 interface for Win NT & 2000
Gap handling : Appended to previous track

Used output format : User Defined Encoder
Selected bitrate : 1024 kBit/s
Quality : High
Add ID3 tag : No
Command line compressor : C:\Program Files\FLAC\flac.exe
Additional command line options : -V -8 -T “artist=%a” -T “title=%t” -T “album=%g” -T “date=%y” -T “tracknumber=%n” -T “genre=%m” %s

TOC of the extracted CD

Track | Start | Length | Start sector | End sector
———————————————————
1 | 0:00.00 | 2:48.65 | 0 | 12664
2 | 2:48.65 | 4:35.10 | 12665 | 33299
3 | 7:24.00 | 3:20.48 | 33300 | 48347
4 | 10:44.48 | 3:37.72 | 48348 | 64694
5 | 14:22.45 | 3:38.39 | 64695 | 81083
6 | 18:01.09 | 5:13.54 | 81084 | 104612
7 | 23:14.63 | 3:39.07 | 104613 | 121044
8 | 26:53.70 | 1:17.71 | 121045 | 126890
9 | 30:43.66 | 12:30.20 | 138291 | 194560

Track 1

Filename C:\01 – In The Unblind.wav

Pre-gap length 0:00:02.00

Peak level 99.8 %
Track quality 100.0 %
Test CRC 067A3EFF
Copy CRC 067A3EFF
Copy OK

Track 2

Filename C:\02 – When The Balance Is Broken.wav

Peak level 99.8 %
Track quality 100.0 %
Test CRC F11ECBDF
Copy CRC F11ECBDF
Copy OK

Track 3

Filename C:\03 – Untitled And Unloved.wav

Peak level 82.1 %
Track quality 100.0 %
Test CRC 2FD963D9
Copy CRC 2FD963D9
Copy OK

Track 4

Filename C:\04 – Numbered Days (Demo).wav

Peak level 99.8 %
Track quality 100.0 %
Test CRC FF058ECD
Copy CRC FF058ECD
Copy OK

Track 5

Filename C:\05 – Transfiguration AKA Fixation On The Darkness (Demo).wav

Peak level 99.8 %
Track quality 100.0 %
Test CRC E2322A2A
Copy CRC E2322A2A
Copy OK

Track 6

Filename C:\06 – Just Barely Breathing (Demo).wav

Peak level 99.8 %
Track quality 100.0 %
Test CRC B47C0E3A
Copy CRC B47C0E3A
Copy OK

Track 7

Filename C:\07 – Fixation On The Darkness (With Howard Jones).wav

Peak level 99.8 %
Track quality 100.0 %
Test CRC FD19FE4B
Copy CRC FD19FE4B
Copy OK

Track 8

Filename C:\08 – AOJB Studio Out Takes.wav

Pre-gap length 0:00:01.01

Peak level 100.0 %
Track quality 100.0 %
Test CRC 2B649602
Copy CRC 2B649602
Copy OK

No errors occurred

End of status report

REM GENRE Metal
REM DATE 2002
REM DISCID 9A0A860C
REM COMMENT “ExactAudioCopy v0.99pb4”
PERFORMER “Killswitch Engage”
TITLE “Alive Or Just Breathing”
FILE “01 – Numbered Days.wav” WAVE
TRACK 01 AUDIO
TITLE “Numbered Days”
PERFORMER “Killswitch Engage”
FLAGS DCP
INDEX 01 00:00:00
FILE “02 – Self Revolution.wav” WAVE
TRACK 02 AUDIO
TITLE “Self Revolution”
PERFORMER “Killswitch Engage”
FLAGS DCP
INDEX 01 00:00:00
FILE “03 – Fixation On The Darkness.wav” WAVE
TRACK 03 AUDIO
TITLE “Fixation On The Darkness”
PERFORMER “Killswitch Engage”
FLAGS DCP
INDEX 01 00:00:00
TRACK 04 AUDIO
TITLE “My Last Serenade”
PERFORMER “Killswitch Engage”
FLAGS DCP
INDEX 00 03:35:73
FILE “04 – My Last Serenade.wav” WAVE
INDEX 01 00:00:00
FILE “05 – Life To Lifeless.wav” WAVE
TRACK 05 AUDIO
TITLE “Life To Lifeless”
PERFORMER “Killswitch Engage”
FLAGS DCP
INDEX 01 00:00:00
TRACK 06 AUDIO
TITLE “Just Barely Breathing”
PERFORMER “Killswitch Engage”
FLAGS DCP
INDEX 00 03:17:04
FILE “06 – Just Barely Breathing.wav” WAVE
INDEX 01 00:00:00
FILE “07 – To The Sons Of Man.wav” WAVE
TRACK 07 AUDIO
TITLE “To The Sons Of Man”
PERFORMER “Killswitch Engage”
FLAGS DCP
INDEX 01 00:00:00
FILE “08 – Temple From The Within.wav” WAVE
TRACK 08 AUDIO
TITLE “Temple From The Within”
PERFORMER “Killswitch Engage”
FLAGS DCP
INDEX 01 00:00:00
FILE “09 – The Element Of One.wav” WAVE
TRACK 09 AUDIO
TITLE “The Element Of One”
PERFORMER “Killswitch Engage”
FLAGS DCP
INDEX 01 00:00:00
FILE “10 – Vide Infra.wav” WAVE
TRACK 10 AUDIO
TITLE “Vide Infra”
PERFORMER “Killswitch Engage”
FLAGS DCP
INDEX 01 00:00:00
TRACK 11 AUDIO
TITLE “Without A Name”
PERFORMER “Killswitch Engage”
FLAGS DCP
INDEX 00 03:27:54
FILE “11 – Without A Name.wav” WAVE
INDEX 01 00:00:00
FILE “12 – Rise Inside.wav” WAVE
TRACK 12 AUDIO
TITLE “Rise Inside”
PERFORMER “Killswitch Engage”
FLAGS DCP
INDEX 01 00:00:00

REM GENRE Rock
REM DATE 2002
REM DISCID 780A2209
REM COMMENT “ExactAudioCopy v0.99pb4”
PERFORMER “Killswitch Engage”
TITLE “Alive or Just Breathing”
FILE “01 – In The Unblind.wav” WAVE
TRACK 01 AUDIO
TITLE “In The Unblind”
PERFORMER “Killswitch Engage”
INDEX 01 00:00:00
FILE “02 – When The Balance Is Broken.wav” WAVE
TRACK 02 AUDIO
TITLE “When The Balance Is Broken”
PERFORMER “Killswitch Engage”
INDEX 01 00:00:00
FILE “03 – Untitled And Unloved.wav” WAVE
TRACK 03 AUDIO
TITLE “Untitled And Unloved”
PERFORMER “Killswitch Engage”
INDEX 01 00:00:00
FILE “04 – Numbered Days (Demo).wav” WAVE
TRACK 04 AUDIO
TITLE “Numbered Days (Demo)”
PERFORMER “Killswitch Engage”
INDEX 01 00:00:00
FILE “05 – Transfiguration AKA Fixation On The Darkness (Demo).wav” WAVE
TRACK 05 AUDIO
TITLE “Transfiguration AKA Fixation On The Darkness (Demo)”
PERFORMER “Killswitch Engage”
INDEX 01 00:00:00
FILE “06 – Just Barely Breathing (Demo).wav” WAVE
TRACK 06 AUDIO
TITLE “Just Barely Breathing (Demo)”
PERFORMER “Killswitch Engage”
INDEX 01 00:00:00
FILE “07 – Fixation On The Darkness (With Howard Jones).wav” WAVE
TRACK 07 AUDIO
TITLE “Fixation On The Darkness (With Howard Jones)”
PERFORMER “Killswitch Engage”
INDEX 01 00:00:00
TRACK 08 AUDIO
TITLE “AOJB Studio Out Takes”
PERFORMER “Killswitch Engage”
INDEX 00 03:38:06
FILE “08 – AOJB Studio Out Takes.wav” WAVE
INDEX 01 00:00:00
TRACK 09 MODEx/2xxx
TITLE “Data Track”
PERFORMER “Killswitch Engage”
INDEX 00 01:17:71


Spread the Download

Leave a Reply

Your email address will not be published. Required fields are marked *

Enter the text from the image below
 

This site uses Akismet to reduce spam. Learn how your comment data is processed.