Killing Joke – Wilful Days




Artist: Killing Joke
Year: 1995
Genre: Rock
Notes: Discogs
Add. Notes:
Cover incl.: Yes
Encoder: FLAC
Bitrate: ~900 kBit/s (44.1 kHz/16 Bit/s)
Log & Cue incl.: Yes
Size: 455,37 MB
Password: “slam” (without ” “)


All Downloads/Hosters are compatible

Download 1
Turbobit.net
Rapidgator.net
UploadEver.com
KatFile.com
UsersDrive.com
Download 2
Turbobit.net
Rapidgator.net
UploadEver.com
KatFile.com
UsersDrive.com
Download 3
Turbobit.net
Rapidgator.net
UploadEver.com
KatFile.com
UsersDrive.com

Tracklist:

1 - Are You Receiving - 4:59
2 - Follow The Leaders (Dub) - 4:03
3 - Sun Goes Down - 4:18
4 - Dominator (Extended) - 5:32
5 - Me Or You - 3:12
6 - Wilful Days - 5:02
7 - Eighties (Serious Dance Mix) - 8:00
8 - A New Day - 4:02
9 - Love Like Blood (Gestalt Mix) - 6:41
10 - The Madding Crowd - 5:11
11 - Ecstacy (The Extended Mix) - 6:28
12 - America (Extended) - 6:44
13 - Change (Re-Evolution Mix) - 3:59

EAC-Log, CUE-Sheed & NFO:

Click to open spoiler
Exact Audio Copy V0.99 prebeta 4 from 23. January 2008

EAC extraction logfile from 17. May 2009, 1:52

Killing Joke / Wilful Days

Used drive : PBDS CD-ROM DH-48N1P Adapter: 0 ID: 0

Read mode : Secure
Utilize accurate stream : Yes
Defeat audio cache : Yes
Make use of C2 pointers : No

Read offset correction : 6
Overread into Lead-In and Lead-Out : No
Fill up missing offset samples with silence : Yes
Delete leading and trailing silent blocks : No
Null samples used in CRC calculations : No
Used interface : Native Win32 interface for Win NT & 2000
Gap handling : Appended to previous track

Used output format : User Defined Encoder
Selected bitrate : 128 kBit/s
Quality : High
Add ID3 tag : No
Command line compressor : D:\Exact Audio Copy\Flac\flac.exe
Additional command line options : -V -8 -T “artist=%a” -T “title=%t” -T “album=%g” -T “date=%y” -T “tracknumber=%n” -T “genre=%m” %s

TOC of the extracted CD

Track | Start | Length | Start sector | End sector
———————————————————
1 | 0:00.00 | 4:59.07 | 0 | 22431
2 | 4:59.07 | 4:06.00 | 22432 | 40881
3 | 9:05.07 | 4:20.65 | 40882 | 60446
4 | 13:25.72 | 5:34.63 | 60447 | 85559
5 | 19:00.60 | 3:14.57 | 85560 | 100166
6 | 22:15.42 | 5:04.53 | 100167 | 123019
7 | 27:20.20 | 8:03.45 | 123020 | 159289
8 | 35:23.65 | 4:02.27 | 159290 | 177466
9 | 39:26.17 | 6:45.35 | 177467 | 207876
10 | 46:11.52 | 5:13.18 | 207877 | 231369
11 | 51:24.70 | 6:30.39 | 231370 | 260658
12 | 57:55.34 | 6:46.53 | 260659 | 291161
13 | 64:42.12 | 4:00.38 | 291162 | 309199

Track 1

Filename D:\mp3\killing joke – wilful days flac\Killing Joke – Wilful Days – 01 – Are You Receiving.wav

Pre-gap length 0:00:02.00

Peak level 92.6 %
Track quality 100.0 %
Test CRC 0A234AD5
Copy CRC 0A234AD5
Accurately ripped (confidence 6) [048A266E]
Copy OK

Track 2

Filename D:\mp3\killing joke – wilful days flac\Killing Joke – Wilful Days – 02 – Follow The Leaders (Dub).wav

Pre-gap length 0:00:02.35

Peak level 93.8 %
Track quality 100.0 %
Test CRC 9ADE33D6
Copy CRC 9ADE33D6
Accurately ripped (confidence 6) [F82BDD8F]
Copy OK

Track 3

Filename D:\mp3\killing joke – wilful days flac\Killing Joke – Wilful Days – 03 – Sun Goes Down.wav

Pre-gap length 0:00:03.18

Peak level 99.7 %
Track quality 100.0 %
Test CRC 67E6038C
Copy CRC 67E6038C
Accurately ripped (confidence 6) [EEEF9026]
Copy OK

Track 4

Filename D:\mp3\killing joke – wilful days flac\Killing Joke – Wilful Days – 04 – Dominator (Extended).wav

Pre-gap length 0:00:01.40

Peak level 98.5 %
Track quality 100.0 %
Test CRC F702D31E
Copy CRC F702D31E
Accurately ripped (confidence 6) [D7D064F6]
Copy OK

Track 5

Filename D:\mp3\killing joke – wilful days flac\Killing Joke – Wilful Days – 05 – Me Or You.wav

Pre-gap length 0:00:01.45

Peak level 98.9 %
Track quality 100.0 %
Test CRC 0FF7CF8B
Copy CRC 0FF7CF8B
Accurately ripped (confidence 6) [81E5B3F5]
Copy OK

Track 6

Filename D:\mp3\killing joke – wilful days flac\Killing Joke – Wilful Days – 06 – Wilful Days.wav

Pre-gap length 0:00:02.05

Peak level 100.0 %
Track quality 100.0 %
Test CRC FC7AF4DA
Copy CRC FC7AF4DA
Accurately ripped (confidence 6) [57F2B2B7]
Copy OK

Track 7

Filename D:\mp3\killing joke – wilful days flac\Killing Joke – Wilful Days – 07 – Eighties (Serious Dance Mix).wav

Pre-gap length 0:00:02.05

Peak level 100.0 %
Track quality 100.0 %
Test CRC 2B45354D
Copy CRC 2B45354D
Accurately ripped (confidence 6) [4F6CADD7]
Copy OK

Track 8

Filename D:\mp3\killing joke – wilful days flac\Killing Joke – Wilful Days – 08 – A New Day.wav

Pre-gap length 0:00:02.58

Peak level 100.0 %
Track quality 100.0 %
Test CRC 306C71C9
Copy CRC 306C71C9
Accurately ripped (confidence 6) [8B815BBD]
Copy OK

Track 9

Filename D:\mp3\killing joke – wilful days flac\Killing Joke – Wilful Days – 09 – Love Like Blood (Gestalt Mix).wav

Pre-gap length 0:00:00.10

Peak level 92.1 %
Track quality 100.0 %
Test CRC 22FD7372
Copy CRC 22FD7372
Accurately ripped (confidence 6) [C2D0F308]
Copy OK

Track 10

Filename D:\mp3\killing joke – wilful days flac\Killing Joke – Wilful Days – 10 – The Madding Crowd.wav

Pre-gap length 0:00:04.02

Peak level 83.8 %
Track quality 100.0 %
Test CRC 7F05E96E
Copy CRC 7F05E96E
Accurately ripped (confidence 6) [5F785FC2]
Copy OK

Track 11

Filename D:\mp3\killing joke – wilful days flac\Killing Joke – Wilful Days – 11 – Ecstacy (The Extended Mix).wav

Pre-gap length 0:00:01.23

Peak level 100.0 %
Track quality 99.9 %
Test CRC 3DA0420F
Copy CRC 3DA0420F
Accurately ripped (confidence 6) [611D045E]
Copy OK

Track 12

Filename D:\mp3\killing joke – wilful days flac\Killing Joke – Wilful Days – 12 – America (Extended).wav

Pre-gap length 0:00:01.32

Peak level 100.0 %
Track quality 100.0 %
Test CRC 45817E64
Copy CRC 45817E64
Accurately ripped (confidence 6) [DCF21128]
Copy OK

Track 13

Filename D:\mp3\killing joke – wilful days flac\Killing Joke – Wilful Days – 13 – Change (Re-Evolution Mix).wav

Pre-gap length 0:00:01.35

Peak level 97.3 %
Track quality 100.0 %
Test CRC 5C2EDACC
Copy CRC 5C2EDACC
Accurately ripped (confidence 6) [A6915763]
Copy OK

All tracks accurately ripped

No errors occurred

End of status report

REM GENRE “Post Punk”
REM DATE 1995
REM DISCID B5101A0D
REM COMMENT “ExactAudioCopy v0.99pb4”
PERFORMER “Killing Joke”
TITLE “Wilful Days”
FILE “Killing Joke – Wilful Days – 01 – Are You Receiving.wav” WAVE
TRACK 01 AUDIO
TITLE “Are You Receiving”
PERFORMER “Killing Joke”
INDEX 01 00:00:00
TRACK 02 AUDIO
TITLE “Follow The Leaders (Dub)”
PERFORMER “Killing Joke”
INDEX 00 04:56:47
FILE “Killing Joke – Wilful Days – 02 – Follow The Leaders (Dub).wav” WAVE
INDEX 01 00:00:00
TRACK 03 AUDIO
TITLE “Sun Goes Down”
PERFORMER “Killing Joke”
INDEX 00 04:02:57
FILE “Killing Joke – Wilful Days – 03 – Sun Goes Down.wav” WAVE
INDEX 01 00:00:00
TRACK 04 AUDIO
TITLE “Dominator (Extended)”
PERFORMER “Killing Joke”
INDEX 00 04:19:25
FILE “Killing Joke – Wilful Days – 04 – Dominator (Extended).wav” WAVE
INDEX 01 00:00:00
TRACK 05 AUDIO
TITLE “Me Or You”
PERFORMER “Killing Joke”
INDEX 00 05:33:18
FILE “Killing Joke – Wilful Days – 05 – Me Or You.wav” WAVE
INDEX 01 00:00:00
TRACK 06 AUDIO
TITLE “Wilful Days”
PERFORMER “Killing Joke”
INDEX 00 03:12:52
FILE “Killing Joke – Wilful Days – 06 – Wilful Days.wav” WAVE
INDEX 01 00:00:00
TRACK 07 AUDIO
TITLE “Eighties (Serious Dance Mix)”
PERFORMER “Killing Joke”
INDEX 00 05:02:48
FILE “Killing Joke – Wilful Days – 07 – Eighties (Serious Dance Mix).wav” WAVE
INDEX 01 00:00:00
TRACK 08 AUDIO
TITLE “A New Day”
PERFORMER “Killing Joke”
INDEX 00 08:00:62
FILE “Killing Joke – Wilful Days – 08 – A New Day.wav” WAVE
INDEX 01 00:00:00
TRACK 09 AUDIO
TITLE “Love Like Blood (Gestalt Mix)”
PERFORMER “Killing Joke”
INDEX 00 04:02:17
FILE “Killing Joke – Wilful Days – 09 – Love Like Blood (Gestalt Mix).wav” WAVE
INDEX 01 00:00:00
TRACK 10 AUDIO
TITLE “The Madding Crowd”
PERFORMER “Killing Joke”
INDEX 00 06:41:33
FILE “Killing Joke – Wilful Days – 10 – The Madding Crowd.wav” WAVE
INDEX 01 00:00:00
TRACK 11 AUDIO
TITLE “Ecstacy (The Extended Mix)”
PERFORMER “Killing Joke”
INDEX 00 05:11:70
FILE “Killing Joke – Wilful Days – 11 – Ecstacy (The Extended Mix).wav” WAVE
INDEX 01 00:00:00
TRACK 12 AUDIO
TITLE “America (Extended)”
PERFORMER “Killing Joke”
INDEX 00 06:29:07
FILE “Killing Joke – Wilful Days – 12 – America (Extended).wav” WAVE
INDEX 01 00:00:00
TRACK 13 AUDIO
TITLE “Change (Re-Evolution Mix)”
PERFORMER “Killing Joke”
INDEX 00 06:45:18
FILE “Killing Joke – Wilful Days – 13 – Change (Re-Evolution Mix).wav” WAVE
INDEX 01 00:00:00


Leave a Reply

Your email address will not be published. Required fields are marked *

This site uses Akismet to reduce spam. Learn how your comment data is processed.