Killing Joke – What’s This For…! (Remastered)




Artist: Killing Joke
Year: 1981/2005
Genre: Punk
Notes: Discogs
Add. Notes: Remastered
Cover incl.: Yes
Encoder: FLAC
Bitrate: ~800 kBit/s (44.1 kHz/16 Bit/s)
Log & Cue incl.: Yes
Size: 367,72 MB
Password: “slam” (without ” “)


All Downloads/Hosters are compatible

Download 1
Turbobit.net
Rapidgator.net
KatFile.com
UploadRar.com
Download 2
Turbobit.net
Rapidgator.net
KatFile.com
UploadRar.com

Tracklist:

1 - The Fall Of Because - 5:12
2 - Tension - 4:33
3 - Unspeakable - 5:19
4 - Butcher - 6:13
5 - Follow The Leaders - 5:37
6 - Madness - 7:43
7 - Who Told You How? - 3:37
8 - Exit - 3:44
Bonus Tracks
9 - Follow The Leaders (Dub) - 4:06
10 - Madness (Dub) - 7:28
11 - Brilliant - 3:58

EAC-Log, CUE-Sheed & NFO:

Click to open spoiler
X Lossless Decoder version 20090320 (105.1)

XLD extraction logfile from 2009-06-07 03:24:51 -0700

Killing Joke / what’s THIS for…!

Used drive : MATSHITA DVD-R UJ-867 (revision HA13)

Use cdparanoia mode : YES (CDParanoia III 10.2 engine)
Disable audio cache : OK for the drive with cache less than 2750KB
Make use of C2 pointers : NO
Read offset correction : 102
Max retry count : 100

TOC of the extracted CD
Track | Start | Length | Start sector | End sector
———————————————————
1 | 00:00:00 | 05:12:58 | 0 | 23457
2 | 05:12:58 | 04:33:42 | 23458 | 43974
3 | 09:46:25 | 05:19:35 | 43975 | 67934
4 | 15:05:60 | 06:13:69 | 67935 | 95978
5 | 21:19:54 | 05:37:48 | 95979 | 121301
6 | 26:57:27 | 07:43:51 | 121302 | 156077
7 | 34:41:03 | 03:37:15 | 156078 | 172367
8 | 38:18:18 | 03:44:17 | 172368 | 189184
9 | 42:02:35 | 04:06:52 | 189185 | 207686
10 | 46:09:12 | 07:28:09 | 207687 | 241295
11 | 53:37:21 | 03:58:74 | 241296 | 259219

Track 01
Filename : /Users/thomasshea/Desktop/Killing Joke – what’s THIS for…!/01 Killing Joke – The Fall Of Because.flac

CRC32 hash (test run) : CEC6CA09
CRC32 hash : CEC6CA09
CRC32 hash (skip zero) : A76A4759
AccurateRip signature : 40DE6EA9
->Accurately ripped! (confidence 5)
Statistics
Read error : 0
Skipped (treated as error) : 0
Edge jitter error (maybe fixed) : 0
Atom jitter error (maybe fixed) : 0
Drift error (maybe fixed) : 0
Dropped bytes error (maybe fixed) : 0
Duplicated bytes error (maybe fixed) : 0

Track 02
Filename : /Users/thomasshea/Desktop/Killing Joke – what’s THIS for…!/02 Killing Joke – Tension.flac

CRC32 hash (test run) : 9293C8CC
CRC32 hash : 9293C8CC
CRC32 hash (skip zero) : 516E6F2E
AccurateRip signature : D1F50637
->Accurately ripped! (confidence 5)
Statistics
Read error : 0
Skipped (treated as error) : 0
Edge jitter error (maybe fixed) : 0
Atom jitter error (maybe fixed) : 0
Drift error (maybe fixed) : 0
Dropped bytes error (maybe fixed) : 0
Duplicated bytes error (maybe fixed) : 0

Track 03
Filename : /Users/thomasshea/Desktop/Killing Joke – what’s THIS for…!/03 Killing Joke – Unspeakable.flac

CRC32 hash (test run) : 666E7EFF
CRC32 hash : 666E7EFF
CRC32 hash (skip zero) : 0D91C128
AccurateRip signature : FCFA3F38
->Accurately ripped! (confidence 5)
Statistics
Read error : 0
Skipped (treated as error) : 0
Edge jitter error (maybe fixed) : 0
Atom jitter error (maybe fixed) : 0
Drift error (maybe fixed) : 0
Dropped bytes error (maybe fixed) : 0
Duplicated bytes error (maybe fixed) : 0

Track 04
Filename : /Users/thomasshea/Desktop/Killing Joke – what’s THIS for…!/04 Killing Joke – Butcher.flac

CRC32 hash (test run) : 90D04CE4
CRC32 hash : 90D04CE4
CRC32 hash (skip zero) : 432B858F
AccurateRip signature : 53A93D99
->Accurately ripped! (confidence 5)
Statistics
Read error : 0
Skipped (treated as error) : 0
Edge jitter error (maybe fixed) : 0
Atom jitter error (maybe fixed) : 0
Drift error (maybe fixed) : 0
Dropped bytes error (maybe fixed) : 0
Duplicated bytes error (maybe fixed) : 0

Track 05
Filename : /Users/thomasshea/Desktop/Killing Joke – what’s THIS for…!/05 Killing Joke – Follow The Leaders.flac

CRC32 hash (test run) : 04B50E2F
CRC32 hash : 04B50E2F
CRC32 hash (skip zero) : BCD9940E
AccurateRip signature : F8CAD808
->Accurately ripped! (confidence 5)
Statistics
Read error : 0
Skipped (treated as error) : 0
Edge jitter error (maybe fixed) : 0
Atom jitter error (maybe fixed) : 0
Drift error (maybe fixed) : 0
Dropped bytes error (maybe fixed) : 0
Duplicated bytes error (maybe fixed) : 0

Track 06
Filename : /Users/thomasshea/Desktop/Killing Joke – what’s THIS for…!/06 Killing Joke – Madness.flac

CRC32 hash (test run) : 95C9625A
CRC32 hash : 95C9625A
CRC32 hash (skip zero) : D6CDDD49
AccurateRip signature : C8696384
->Accurately ripped! (confidence 5)
Statistics
Read error : 0
Skipped (treated as error) : 0
Edge jitter error (maybe fixed) : 0
Atom jitter error (maybe fixed) : 0
Drift error (maybe fixed) : 0
Dropped bytes error (maybe fixed) : 0
Duplicated bytes error (maybe fixed) : 0

Track 07
Filename : /Users/thomasshea/Desktop/Killing Joke – what’s THIS for…!/07 Killing Joke – Who Told You How?.flac

CRC32 hash (test run) : 45307376
CRC32 hash : 45307376
CRC32 hash (skip zero) : 6DDFF37D
AccurateRip signature : 45C45D1C
->Accurately ripped! (confidence 5)
Statistics
Read error : 0
Skipped (treated as error) : 0
Edge jitter error (maybe fixed) : 0
Atom jitter error (maybe fixed) : 0
Drift error (maybe fixed) : 0
Dropped bytes error (maybe fixed) : 0
Duplicated bytes error (maybe fixed) : 0

Track 08
Filename : /Users/thomasshea/Desktop/Killing Joke – what’s THIS for…!/08 Killing Joke – Exit.flac

CRC32 hash (test run) : 2B63DD76
CRC32 hash : 2B63DD76
CRC32 hash (skip zero) : B842EEBB
AccurateRip signature : C69881DE
->Accurately ripped! (confidence 5)
Statistics
Read error : 0
Skipped (treated as error) : 0
Edge jitter error (maybe fixed) : 0
Atom jitter error (maybe fixed) : 0
Drift error (maybe fixed) : 0
Dropped bytes error (maybe fixed) : 0
Duplicated bytes error (maybe fixed) : 0

Track 09
Filename : /Users/thomasshea/Desktop/Killing Joke – what’s THIS for…!/09 Killing Joke – Follow The Leaders (Dub).flac

CRC32 hash (test run) : 5ED5ECB8
CRC32 hash : 5ED5ECB8
CRC32 hash (skip zero) : 147EAE73
AccurateRip signature : 22FA1237
->Accurately ripped! (confidence 5)
Statistics
Read error : 0
Skipped (treated as error) : 0
Edge jitter error (maybe fixed) : 0
Atom jitter error (maybe fixed) : 0
Drift error (maybe fixed) : 0
Dropped bytes error (maybe fixed) : 0
Duplicated bytes error (maybe fixed) : 0

Track 10
Filename : /Users/thomasshea/Desktop/Killing Joke – what’s THIS for…!/10 Killing Joke – Madness (Dub).flac

CRC32 hash (test run) : 23CAF7B7
CRC32 hash : 23CAF7B7
CRC32 hash (skip zero) : F074910C
AccurateRip signature : 5694BCE3
->Accurately ripped! (confidence 5)
Statistics
Read error : 0
Skipped (treated as error) : 0
Edge jitter error (maybe fixed) : 0
Atom jitter error (maybe fixed) : 0
Drift error (maybe fixed) : 0
Dropped bytes error (maybe fixed) : 0
Duplicated bytes error (maybe fixed) : 0

Track 11
Filename : /Users/thomasshea/Desktop/Killing Joke – what’s THIS for…!/11 Killing Joke – Brilliant.flac

CRC32 hash (test run) : F99FD603
CRC32 hash : F99FD603
CRC32 hash (skip zero) : 6DAA2021
AccurateRip signature : 5087BE58
->Accurately ripped! (confidence 5)
Statistics
Read error : 0
Skipped (treated as error) : 0
Edge jitter error (maybe fixed) : 0
Atom jitter error (maybe fixed) : 0
Drift error (maybe fixed) : 0
Dropped bytes error (maybe fixed) : 0
Duplicated bytes error (maybe fixed) : 0

No errors occurred

End of status report

TITLE “what’s THIS for…!”
PERFORMER “Killing Joke”
CATALOG 0094631222429
REM GENRE “New Wave”
REM DATE 1982
FILE “CDImage.wav” WAVE
TRACK 01 AUDIO
TITLE “The Fall Of Because”
ISRC GBAAA0500329
INDEX 01 00:00:00
TRACK 02 AUDIO
TITLE “Tension”
ISRC GBAAA0500330
INDEX 01 05:12:58
TRACK 03 AUDIO
TITLE “Unspeakable”
ISRC GBAAA0500331
INDEX 00 09:45:19
INDEX 01 09:46:25
TRACK 04 AUDIO
TITLE “Butcher”
ISRC GBAAA0500332
INDEX 00 15:05:30
INDEX 01 15:05:60
TRACK 05 AUDIO
TITLE “Follow The Leaders”
ISRC GBAAA0500333
INDEX 00 21:19:40
INDEX 01 21:19:54
TRACK 06 AUDIO
TITLE “Madness”
ISRC GBAAA0500334
INDEX 00 26:56:16
INDEX 01 26:57:27
TRACK 07 AUDIO
TITLE “Who Told You How?”
ISRC GBAAA0500335
INDEX 00 34:40:40
INDEX 01 34:41:03
TRACK 08 AUDIO
TITLE “Exit”
ISRC GBAAA0500336
INDEX 01 38:18:18
TRACK 09 AUDIO
TITLE “Follow The Leaders (Dub)”
ISRC GBAAA0500337
INDEX 00 41:57:48
INDEX 01 42:02:35
TRACK 10 AUDIO
TITLE “Madness (Dub)”
ISRC GBAAA0500338
INDEX 00 46:08:37
INDEX 01 46:09:12
TRACK 11 AUDIO
TITLE “Brilliant”
ISRC GBAAA0500372
INDEX 00 53:36:29
INDEX 01 53:37:21


Leave a Reply

Your email address will not be published. Required fields are marked *

Enter the text from the image below
 

This site uses Akismet to reduce spam. Learn how your comment data is processed.