Killing Joke – Wardance – The Remixes




Artist: Killing Joke
Year: 1998
Genre: Alternative
Notes: Discogs
Add. Notes:
Cover incl.: Yes
Encoder: FLAC
Bitrate: ~1000 kBit/s (44.1 kHz/16 Bit/s)
Log & Cue incl.: Yes
Size: 504,88 MB
Password: “slam” (without ” “)


All Downloads/Hosters are compatible

Download 1
Turbobit.net
Rapidgator.net
UploadEver.com
KatFile.com
UsersDrive.com
Download 2
Turbobit.net
Rapidgator.net
UploadEver.com
KatFile.com
UsersDrive.com
Download 3
Turbobit.net
Rapidgator.net
UploadEver.com
KatFile.com
UsersDrive.com

Tracklist:

1 - Love Like Blood (Deedrah Remix) - 6:49
2 - Savage Freedom (UX Remix) - 8:59
3 - Democracy (NIN Remix) - 7:24
4 - Four Stations Of The Sun (Hallucinogen Remix) - 7:27
5 - Pandemonium (Man With No Name Remix) - 6:16
6 - Jana (Hallucinogenic) - 6:48
7 - Black Moon (California Sunshine Remix) - 10:19
8 - Intellect (Johan Remix) - 7:04
9 - White Out (Johan Remix) - 7:30

EAC-Log, CUE-Sheed & NFO:

Click to open spoiler
X Lossless Decoder version 20090320 (105.1)

XLD extraction logfile from 2009-05-15 02:45:37 +0200

Killing Joke / Wardance – The Remixes

Used drive : MATSHITA DVD-R UJ-846 (revision FAAG)

Use cdparanoia mode : YES (CDParanoia III 10.2 engine)
Disable audio cache : OK for the drive with cache less than 2750KB
Make use of C2 pointers : NO
Read offset correction : 102
Max retry count : 100

TOC of the extracted CD
Track | Start | Length | Start sector | End sector
———————————————————
1 | 00:00:32 | 06:49:28 | 32 | 30734
2 | 06:49:60 | 08:59:55 | 30735 | 71214
3 | 15:49:40 | 07:24:00 | 71215 | 104514
4 | 23:13:40 | 07:27:70 | 104515 | 138109
5 | 30:41:35 | 06:16:15 | 138110 | 166324
6 | 36:57:50 | 06:48:52 | 166325 | 196976
7 | 43:46:27 | 10:19:23 | 196977 | 243424
8 | 54:05:50 | 07:04:32 | 243425 | 275256
9 | 61:10:07 | 07:30:65 | 275257 | 309071

Track 01
Filename : /Users/Karin/Desktop/rtp/01 Love Like Blood – Deedrah Remix.flac

CRC32 hash (test run) : 358E54F6
CRC32 hash : 358E54F6
CRC32 hash (skip zero) : DEB60361
AccurateRip signature : 74594707
->Accurately ripped! (confidence 5)
Statistics
Read error : 0
Skipped (treated as error) : 0
Edge jitter error (maybe fixed) : 0
Atom jitter error (maybe fixed) : 0
Drift error (maybe fixed) : 0
Dropped bytes error (maybe fixed) : 0
Duplicated bytes error (maybe fixed) : 0
Inconsistency in error sectors : 0

Track 02
Filename : /Users/Karin/Desktop/rtp/02 Savage Freedom – Ux Remix.flac

CRC32 hash (test run) : E3084686
CRC32 hash : E3084686
CRC32 hash (skip zero) : 59DB2229
AccurateRip signature : 9B70E409
->Accurately ripped! (confidence 5)
Statistics
Read error : 0
Skipped (treated as error) : 0
Edge jitter error (maybe fixed) : 0
Atom jitter error (maybe fixed) : 0
Drift error (maybe fixed) : 0
Dropped bytes error (maybe fixed) : 0
Duplicated bytes error (maybe fixed) : 0
Inconsistency in error sectors : 0

Track 03
Filename : /Users/Karin/Desktop/rtp/03 Democracy – Nin Remix.flac

CRC32 hash (test run) : 260641B0
CRC32 hash : 260641B0
CRC32 hash (skip zero) : 3FDF71E4
AccurateRip signature : B5DD6F64
->Accurately ripped! (confidence 5)
Statistics
Read error : 0
Skipped (treated as error) : 0
Edge jitter error (maybe fixed) : 0
Atom jitter error (maybe fixed) : 0
Drift error (maybe fixed) : 0
Dropped bytes error (maybe fixed) : 0
Duplicated bytes error (maybe fixed) : 0
Inconsistency in error sectors : 0

Track 04
Filename : /Users/Karin/Desktop/rtp/04 Four Stations Of The Sun – Hallucinogen Remix.flac

CRC32 hash (test run) : E92DA9B0
CRC32 hash : E92DA9B0
CRC32 hash (skip zero) : 5B018E6E
AccurateRip signature : 5AAFF923
->Accurately ripped! (confidence 5)
Statistics
Read error : 0
Skipped (treated as error) : 0
Edge jitter error (maybe fixed) : 0
Atom jitter error (maybe fixed) : 0
Drift error (maybe fixed) : 0
Dropped bytes error (maybe fixed) : 0
Duplicated bytes error (maybe fixed) : 0
Inconsistency in error sectors : 0

Track 05
Filename : /Users/Karin/Desktop/rtp/05 Pandemonium – Man With No Name Remix.flac

CRC32 hash (test run) : 479F78F3
CRC32 hash : 479F78F3
CRC32 hash (skip zero) : 2752AF88
AccurateRip signature : 22CB31C4
->Accurately ripped! (confidence 5)
Statistics
Read error : 0
Skipped (treated as error) : 0
Edge jitter error (maybe fixed) : 0
Atom jitter error (maybe fixed) : 0
Drift error (maybe fixed) : 0
Dropped bytes error (maybe fixed) : 0
Duplicated bytes error (maybe fixed) : 0
Inconsistency in error sectors : 0

Track 06
Filename : /Users/Karin/Desktop/rtp/06 Jana – Hallucinogenic.flac

CRC32 hash (test run) : 4F3E5FBB
CRC32 hash : 4F3E5FBB
CRC32 hash (skip zero) : F504B254
AccurateRip signature : 3BE811BB
->Accurately ripped! (confidence 5)
Statistics
Read error : 0
Skipped (treated as error) : 0
Edge jitter error (maybe fixed) : 0
Atom jitter error (maybe fixed) : 0
Drift error (maybe fixed) : 0
Dropped bytes error (maybe fixed) : 0
Duplicated bytes error (maybe fixed) : 0
Inconsistency in error sectors : 0

Track 07
Filename : /Users/Karin/Desktop/rtp/07 Black Moon California Sunshine.flac

CRC32 hash (test run) : BD8C16FE
CRC32 hash : BD8C16FE
CRC32 hash (skip zero) : 2DAA2D18
AccurateRip signature : F7F54044
->Accurately ripped! (confidence 5)
Statistics
Read error : 0
Skipped (treated as error) : 0
Edge jitter error (maybe fixed) : 0
Atom jitter error (maybe fixed) : 0
Drift error (maybe fixed) : 0
Dropped bytes error (maybe fixed) : 0
Duplicated bytes error (maybe fixed) : 0
Inconsistency in error sectors : 0

Track 08
Filename : /Users/Karin/Desktop/rtp/08 Intellect – Johan Remix.flac

CRC32 hash (test run) : 1170ADCC
CRC32 hash : 1170ADCC
CRC32 hash (skip zero) : 71E9C0DB
AccurateRip signature : 8A7CA316
->Accurately ripped! (confidence 5)
Statistics
Read error : 0
Skipped (treated as error) : 0
Edge jitter error (maybe fixed) : 0
Atom jitter error (maybe fixed) : 0
Drift error (maybe fixed) : 0
Dropped bytes error (maybe fixed) : 0
Duplicated bytes error (maybe fixed) : 0
Inconsistency in error sectors : 0

Track 09
Filename : /Users/Karin/Desktop/rtp/09 White Out – Johan Remix.flac

CRC32 hash (test run) : 5DD15949
CRC32 hash : 5DD15949
CRC32 hash (skip zero) : B8B470E4
AccurateRip signature : 726FA4F5
->Accurately ripped! (confidence 6)
Statistics
Read error : 0
Skipped (treated as error) : 0
Edge jitter error (maybe fixed) : 0
Atom jitter error (maybe fixed) : 0
Drift error (maybe fixed) : 0
Dropped bytes error (maybe fixed) : 0
Duplicated bytes error (maybe fixed) : 0
Inconsistency in error sectors : 0

No errors occurred

End of status report

TITLE “Wardance – The Remixes”
PERFORMER “Killing Joke”
REM GENRE “Industral”
REM DATE 1998
FILE “01 Love Like Blood – Deedrah Remix.wav” WAVE
TRACK 01 AUDIO
TITLE “Love Like Blood – Deedrah Remix”
INDEX 00 00:00:00
INDEX 01 00:00:32
TRACK 02 AUDIO
TITLE “Savage Freedom – Ux Remix”
INDEX 00 06:47:30
FILE “02 Savage Freedom – Ux Remix.wav” WAVE
INDEX 01 00:00:00
TRACK 03 AUDIO
TITLE “Democracy – Nin Remix”
INDEX 00 08:58:37
FILE “03 Democracy – Nin Remix.wav” WAVE
INDEX 01 00:00:00
TRACK 04 AUDIO
TITLE “Four Stations Of The Sun – Hallucinogen Remix”
INDEX 00 07:22:37
FILE “04 Four Stations Of The Sun – Hallucinogen Remix.wav” WAVE
INDEX 01 00:00:00
TRACK 05 AUDIO
TITLE “Pandemonium – Man With No Name Remix”
INDEX 00 07:26:10
FILE “05 Pandemonium – Man With No Name Remix.wav” WAVE
INDEX 01 00:00:00
TRACK 06 AUDIO
TITLE “Jana – Hallucinogenic”
INDEX 00 06:15:52
FILE “06 Jana – Hallucinogenic.wav” WAVE
INDEX 01 00:00:00
TRACK 07 AUDIO
TITLE “Black Moon California Sunshine”
INDEX 00 06:47:47
FILE “07 Black Moon California Sunshine.wav” WAVE
INDEX 01 00:00:00
TRACK 08 AUDIO
TITLE “Intellect – Johan Remix”
INDEX 00 10:18:15
FILE “08 Intellect – Johan Remix.wav” WAVE
INDEX 01 00:00:00
TRACK 09 AUDIO
TITLE “White Out – Johan Remix”
INDEX 00 07:04:15
FILE “09 White Out – Johan Remix.wav” WAVE
INDEX 01 00:00:00


Leave a Reply

Your email address will not be published. Required fields are marked *

This site uses Akismet to reduce spam. Learn how your comment data is processed.