Killing Joke – The Peel Sessions 1979 – 1981




Artist: Killing Joke
Year: 2008
Genre: Rock
Notes: Discogs
Add. Notes:
Cover incl.: Yes
Encoder: FLAC
Bitrate: ~900 kBit/s (44.1 kHz/16 Bit/s)
Log & Cue incl.: Yes
Size: 439,66 MB
Password: “slam” (without ” “)


All Downloads/Hosters are compatible

Download 1
Turbobit.net
Rapidgator.net
KatFile.com
UploadRar.com
Download 2
Turbobit.net
Rapidgator.net
KatFile.com
UploadRar.com
Download 3
Turbobit.net
Rapidgator.net
KatFile.com
UploadRar.com

Tracklist:

John Peel Sessions
17.10.79
1 - Pssyche - 4:58
2 - Wardance - 3:46
3 - Nuclear Boy - 3:07
4 - Malicious Boogie - 2:04
05.03.80
5 - Change - 4:24
6 - Tomorrow's World - 4:56
7 - Complications - 3:25
27.04.81
8 - The Fall Of Because - 4:18
9 - Tension - 3:35
10 - Butcher - 4:38
16.12.81
11 - The Hum - 4:16
12 - Empire Song - 4:46
13 - We Have Joy - 2:53
14 - Chop Chop - 4:46

Bonus Richard Skinner Session: 29.05.81
15 - Tension - 3:25
16 - Unspeakable - 4:29
17 - Exit - 2:53

EAC-Log, CUE-Sheed & NFO:

Click to open spoiler
Exact Audio Copy V0.99 prebeta 4 from 23. January 2008

EAC extraction logfile from 4. August 2009, 22:27

Killing Joke / The Peel Sessions 1979 – 1981

Used drive : _NEC DVD_RW ND-3520A Adapter: 0 ID: 0

Read mode : Secure
Utilize accurate stream : Yes
Defeat audio cache : Yes
Make use of C2 pointers : No

Read offset correction : 48
Overread into Lead-In and Lead-Out : No
Fill up missing offset samples with silence : Yes
Delete leading and trailing silent blocks : No
Null samples used in CRC calculations : Yes
Used interface : Installed external ASPI interface
Gap handling : Not detected, thus appended to previous track

Used output format : User Defined Encoder
Selected bitrate : 128 kBit/s
Quality : High
Add ID3 tag : No
Command line compressor : D:\ohjelmat\FLAC\flac.exe
Additional command line options : -V -8 -T \”artist=%a\” -T \”title=%t\” -T \”album=%g\” -T \”date=%y\” -T \”tracknumber=%n\” -T \”genre=%m\” %s

TOC of the extracted CD

Track | Start | Length | Start sector | End sector
———————————————————
1 | 0:00.00 | 4:58.00 | 0 | 22349
2 | 4:58.00 | 3:44.73 | 22350 | 39222
3 | 8:42.73 | 3:06.40 | 39223 | 53212
4 | 11:49.38 | 2:02.27 | 53213 | 62389
5 | 13:51.65 | 4:20.31 | 62390 | 81920
6 | 18:12.21 | 4:54.02 | 81921 | 103972
7 | 23:06.23 | 3:22.33 | 103973 | 119155
8 | 26:28.56 | 4:16.04 | 119156 | 138359
9 | 30:44.60 | 3:33.68 | 138360 | 154402
10 | 34:18.53 | 4:36.53 | 154403 | 175155
11 | 38:55.31 | 4:44.21 | 175156 | 196476
12 | 43:39.52 | 3:24.48 | 196477 | 211824
13 | 47:04.25 | 2:51.74 | 211825 | 224723
14 | 49:56.24 | 4:46.03 | 224724 | 246176
15 | 54:42.27 | 4:13.55 | 246177 | 265206
16 | 58:56.07 | 4:45.07 | 265207 | 286588
17 | 63:41.14 | 2:52.01 | 286589 | 299489

Track 1

Filename E:\Rips\FLAC\Killing Joke – The Peel Sessions 1979 – 1981\01 – Pssyche (17.10.79).wav

Peak level 98.1 %
Track quality 100.0 %
Copy CRC 4DA7F7A5
Accurately ripped (confidence 8) [3079B241]
Copy OK

Track 2

Filename E:\Rips\FLAC\Killing Joke – The Peel Sessions 1979 – 1981\02 – Wardance (17.10.79).wav

Peak level 99.1 %
Track quality 100.0 %
Copy CRC A279EC53
Accurately ripped (confidence 8) [E6B3EA84]
Copy OK

Track 3

Filename E:\Rips\FLAC\Killing Joke – The Peel Sessions 1979 – 1981\03 – Nuclear Boy (17.10.79).wav

Peak level 98.2 %
Track quality 100.0 %
Copy CRC 7F4FD67B
Accurately ripped (confidence 8) [406DADCB]
Copy OK

Track 4

Filename E:\Rips\FLAC\Killing Joke – The Peel Sessions 1979 – 1981\04 – Malicious Boogie (17.10.79).wav

Peak level 98.0 %
Track quality 100.0 %
Copy CRC 39D4471F
Accurately ripped (confidence 8) [9ED9972F]
Copy OK

Track 5

Filename E:\Rips\FLAC\Killing Joke – The Peel Sessions 1979 – 1981\05 – Change (05.03.80).wav

Peak level 98.6 %
Track quality 100.0 %
Copy CRC 2B898DC0
Accurately ripped (confidence 8) [BE7A1233]
Copy OK

Track 6

Filename E:\Rips\FLAC\Killing Joke – The Peel Sessions 1979 – 1981\06 – Tomorrow’s World (05.03.80).wav

Peak level 98.9 %
Track quality 100.0 %
Copy CRC 220F4A79
Accurately ripped (confidence 8) [D85A33CE]
Copy OK

Track 7

Filename E:\Rips\FLAC\Killing Joke – The Peel Sessions 1979 – 1981\07 – Complication (05.03.80).wav

Peak level 98.4 %
Track quality 100.0 %
Copy CRC 2647FCA8
Accurately ripped (confidence 8) [8DC4FF14]
Copy OK

Track 8

Filename E:\Rips\FLAC\Killing Joke – The Peel Sessions 1979 – 1981\08 – The Fall Of Because (27.04.81).wav

Peak level 98.2 %
Track quality 100.0 %
Copy CRC 5B26E6FF
Accurately ripped (confidence 8) [F932AC98]
Copy OK

Track 9

Filename E:\Rips\FLAC\Killing Joke – The Peel Sessions 1979 – 1981\09 – Tension (27.04.81).wav

Peak level 98.7 %
Track quality 100.0 %
Copy CRC A76BD548
Accurately ripped (confidence 8) [22B6C12D]
Copy OK

Track 10

Filename E:\Rips\FLAC\Killing Joke – The Peel Sessions 1979 – 1981\10 – Butcher (27.04.81).wav

Peak level 98.9 %
Track quality 100.0 %
Copy CRC CC20534B
Accurately ripped (confidence 8) [C8EB3E2B]
Copy OK

Track 11

Filename E:\Rips\FLAC\Killing Joke – The Peel Sessions 1979 – 1981\11 – The Hum (16.12.81).wav

Peak level 98.3 %
Track quality 100.0 %
Copy CRC 4552569A
Accurately ripped (confidence 8) [DCAD2020]
Copy OK

Track 12

Filename E:\Rips\FLAC\Killing Joke – The Peel Sessions 1979 – 1981\12 – Empire Song (16.12.81).wav

Peak level 98.3 %
Track quality 100.0 %
Copy CRC F80DE25F
Accurately ripped (confidence 8) [30846876]
Copy OK

Track 13

Filename E:\Rips\FLAC\Killing Joke – The Peel Sessions 1979 – 1981\13 – We Have Joy (16.12.81).wav

Peak level 98.4 %
Track quality 99.9 %
Copy CRC 527E85FB
Accurately ripped (confidence 8) [6FEE2954]
Copy OK

Track 14

Filename E:\Rips\FLAC\Killing Joke – The Peel Sessions 1979 – 1981\14 – Chop Chop (16.12.81).wav

Peak level 98.4 %
Track quality 99.9 %
Copy CRC ABD84ACD
Accurately ripped (confidence 8) [9C2ED7D8]
Copy OK

Track 15

Filename E:\Rips\FLAC\Killing Joke – The Peel Sessions 1979 – 1981\15 – Tension (Richard Skinner Session 29.05.81).wav

Peak level 99.0 %
Track quality 100.0 %
Copy CRC 500D6B78
Accurately ripped (confidence 8) [D0C82F2C]
Copy OK

Track 16

Filename E:\Rips\FLAC\Killing Joke – The Peel Sessions 1979 – 1981\16 – Unspeakable (Richard Skinner Session 29.05.81).wav

Peak level 98.3 %
Track quality 99.9 %
Copy CRC B07B4369
Accurately ripped (confidence 8) [0A13CFDD]
Copy OK

Track 17

Filename E:\Rips\FLAC\Killing Joke – The Peel Sessions 1979 – 1981\17 – Exit (Richard Skinner Session 29.05.81).wav

Peak level 99.1 %
Track quality 99.9 %
Copy CRC 58F155F7
Accurately ripped (confidence 8) [CFDE90C5]
Copy OK

All tracks accurately ripped

No errors occurred

End of status report

REM GENRE Post-Punk
REM DATE
REM DISCID EF0F9911
REM COMMENT “ExactAudioCopy v0.99pb4”
PERFORMER “Killing Joke”
TITLE “The Peel Sessions 1979 – 1981”
FILE “01 – Pssyche (17.10.79).wav” WAVE
TRACK 01 AUDIO
TITLE “Pssyche (17.10.79)”
PERFORMER “Killing Joke”
INDEX 01 00:00:00
FILE “02 – Wardance (17.10.79).wav” WAVE
TRACK 02 AUDIO
TITLE “Wardance (17.10.79)”
PERFORMER “Killing Joke”
INDEX 01 00:00:00
FILE “03 – Nuclear Boy (17.10.79).wav” WAVE
TRACK 03 AUDIO
TITLE “Nuclear Boy (17.10.79)”
PERFORMER “Killing Joke”
INDEX 01 00:00:00
FILE “04 – Malicious Boogie (17.10.79).wav” WAVE
TRACK 04 AUDIO
TITLE “Malicious Boogie (17.10.79)”
PERFORMER “Killing Joke”
INDEX 01 00:00:00
FILE “05 – Change (05.03.80).wav” WAVE
TRACK 05 AUDIO
TITLE “Change (05.03.80)”
PERFORMER “Killing Joke”
INDEX 01 00:00:00
FILE “06 – Tomorrow’s World (05.03.80).wav” WAVE
TRACK 06 AUDIO
TITLE “Tomorrow’s World (05.03.80)”
PERFORMER “Killing Joke”
INDEX 01 00:00:00
FILE “07 – Complication (05.03.80).wav” WAVE
TRACK 07 AUDIO
TITLE “Complication (05.03.80)”
PERFORMER “Killing Joke”
INDEX 01 00:00:00
FILE “08 – The Fall Of Because (27.04.81).wav” WAVE
TRACK 08 AUDIO
TITLE “The Fall Of Because (27.04.81)”
PERFORMER “Killing Joke”
INDEX 01 00:00:00
FILE “09 – Tension (27.04.81).wav” WAVE
TRACK 09 AUDIO
TITLE “Tension (27.04.81)”
PERFORMER “Killing Joke”
INDEX 01 00:00:00
FILE “10 – Butcher (27.04.81).wav” WAVE
TRACK 10 AUDIO
TITLE “Butcher (27.04.81)”
PERFORMER “Killing Joke”
INDEX 01 00:00:00
FILE “11 – The Hum (16.12.81).wav” WAVE
TRACK 11 AUDIO
TITLE “The Hum (16.12.81)”
PERFORMER “Killing Joke”
INDEX 01 00:00:00
FILE “12 – Empire Song (16.12.81).wav” WAVE
TRACK 12 AUDIO
TITLE “Empire Song (16.12.81)”
PERFORMER “Killing Joke”
INDEX 01 00:00:00
FILE “13 – We Have Joy (16.12.81).wav” WAVE
TRACK 13 AUDIO
TITLE “We Have Joy (16.12.81)”
PERFORMER “Killing Joke”
INDEX 01 00:00:00
FILE “14 – Chop Chop (16.12.81).wav” WAVE
TRACK 14 AUDIO
TITLE “Chop Chop (16.12.81)”
PERFORMER “Killing Joke”
INDEX 01 00:00:00
FILE “15 – Tension (Richard Skinner Session 29.05.81).wav” WAVE
TRACK 15 AUDIO
TITLE “Tension (Richard Skinner Session 29.05.81)”
PERFORMER “Killing Joke”
INDEX 01 00:00:00
FILE “16 – Unspeakable (Richard Skinner Session 29.05.81).wav” WAVE
TRACK 16 AUDIO
TITLE “Unspeakable (Richard Skinner Session 29.05.81)”
PERFORMER “Killing Joke”
INDEX 01 00:00:00
FILE “17 – Exit (Richard Skinner Session 29.05.81).wav” WAVE
TRACK 17 AUDIO
TITLE “Exit (Richard Skinner Session 29.05.81)”
PERFORMER “Killing Joke”
INDEX 01 00:00:00


Leave a Reply

Your email address will not be published. Required fields are marked *

This site uses Akismet to reduce spam. Learn how your comment data is processed.