Killing Joke – The Gathering 2008 (Limited Edition)




Artist: Killing Joke
Year: 2009
Genre: Punk
Notes: Discogs
Add. Notes: Limited Edition
Cover incl.: Yes
Encoder: FLAC
Bitrate: ~900 kBit/s (44.1 kHz/16 Bit/s)
Log & Cue incl.: Yes
Size: 1324,91 MB
Password: “slam” (without ” “)


All Downloads/Hosters are compatible

Download 1
Turbobit.net
Rapidgator.net
KatFile.com
UploadRar.com
Download 2
Turbobit.net
Rapidgator.net
KatFile.com
UploadRar.com
Download 3
Turbobit.net
Rapidgator.net
KatFile.com
UploadRar.com

Tracklist:

CD 1
01 Requiem (4:26)
02 Wardance (3:35)
03 Tomorrows World (5:04)
04 Bloodsport (4:40)
05 Complication (3:36)
06 S.0.36 (5:44)
07 Primitive (3:40)
08 Eighties (3:13)
09 The Fall Of Because (3:39)
10 Tension (4:05)
11 Unspeakable (4:27)

CD 2
01 Who Told You How? (4:30)
02 Butcher (5:01)
03 Madness (6:21)
04 Exit (3:33)
05 Follow The Leaders (4:42)
06 The Wait (4:02)
07 Pssyche (7:04)
08 Love Like Blood (8:22)
09 Change (4:59)
10 Are You Receiving? (5:34)

CD 3
01 The Hum (6:04)
02 Change (4:13)
03 Pssyche (4:49)
04 Love Like Blood (6:20)
05 Eighties (2:50)
06 Whiteout (3:45)
07 Exorcism (5:16)
08 Labrynth (5:24)
09 Black Moon (5:00)
10 Turn To Red (4:53)

CD 4
01 Communion (5:21)
02 Money Is Not Our God (4:28)
03 Asteroid (3:59)
04 Time Wave (3:43)
05 The Wait (4:12)
06 Pandemonium (8:01)
07 The Pandy's Are Coming (4:25)
08 Empire Song (2:45)
09 Wardance (4:08)

EAC-Log, CUE-Sheed & NFO:

Click to open spoiler
Exact Audio Copy V0.99 prebeta 4 from 23. January 2008

EAC extraction logfile from 10. June 2009, 17:19

Killing Joke / The Gathering 2008 (CD 1)

Used drive : TSSTcorpCDDVDW SH-S202J Adapter: 0 ID: 0

Read mode : Secure
Utilize accurate stream : Yes
Defeat audio cache : Yes
Make use of C2 pointers : No

Read offset correction : 6
Overread into Lead-In and Lead-Out : No
Fill up missing offset samples with silence : Yes
Delete leading and trailing silent blocks : No
Null samples used in CRC calculations : Yes
Used interface : Native Win32 interface for Win NT & 2000
Gap handling : Appended to previous track

Used output format : User Defined Encoder
Selected bitrate : 320 kBit/s
Quality : High
Add ID3 tag : No
Command line compressor : C:\Program Files\FLAC\flac.exe
Additional command line options : -V -8 -T “ARTIST=%a” -T “TITLE=%t” -T “ALBUM=%g” -T “DATE=%y” -T “TRACKNUMBER=%n” -T “GENRE=%m” %s

TOC of the extracted CD

Track | Start | Length | Start sector | End sector
———————————————————
1 | 0:00.00 | 4:25.62 | 0 | 19936
2 | 4:25.62 | 3:35.29 | 19937 | 36090
3 | 8:01.16 | 5:04.12 | 36091 | 58902
4 | 13:05.28 | 4:40.26 | 58903 | 79928
5 | 17:45.54 | 3:36.09 | 79929 | 96137
6 | 21:21.63 | 5:44.19 | 96138 | 121956
7 | 27:06.07 | 3:39.63 | 121957 | 138444
8 | 30:45.70 | 3:13.21 | 138445 | 152940
9 | 33:59.16 | 3:38.58 | 152941 | 169348
10 | 37:37.74 | 4:04.65 | 169349 | 187713
11 | 41:42.64 | 4:27.20 | 187714 | 207758

Track 1

Filename H:\CD Images\Killing Joke – 2009 – The Gathering 2008 (CD 1)\01 – Requiem.wav

Pre-gap length 0:00:02.00

Peak level 97.7 %
Track quality 100.0 %
Test CRC AB7078AC
Copy CRC AB7078AC
Track not present in AccurateRip database
Copy OK

Track 2

Filename H:\CD Images\Killing Joke – 2009 – The Gathering 2008 (CD 1)\02 – Wardance.wav

Peak level 97.7 %
Track quality 100.0 %
Test CRC 7A21CC43
Copy CRC 7A21CC43
Track not present in AccurateRip database
Copy OK

Track 3

Filename H:\CD Images\Killing Joke – 2009 – The Gathering 2008 (CD 1)\03 – Tomorrows World.wav

Peak level 97.7 %
Track quality 99.9 %
Test CRC 1BFF28E1
Copy CRC 1BFF28E1
Track not present in AccurateRip database
Copy OK

Track 4

Filename H:\CD Images\Killing Joke – 2009 – The Gathering 2008 (CD 1)\04 – Bloodsport.wav

Pre-gap length 0:00:00.01

Peak level 97.7 %
Track quality 100.0 %
Test CRC B671711A
Copy CRC B671711A
Track not present in AccurateRip database
Copy OK

Track 5

Filename H:\CD Images\Killing Joke – 2009 – The Gathering 2008 (CD 1)\05 – Complication.wav

Peak level 97.7 %
Track quality 100.0 %
Test CRC 1B50A0A0
Copy CRC 1B50A0A0
Track not present in AccurateRip database
Copy OK

Track 6

Filename H:\CD Images\Killing Joke – 2009 – The Gathering 2008 (CD 1)\06 – S. O. 36.wav

Peak level 97.7 %
Track quality 100.0 %
Test CRC 7704C02C
Copy CRC 7704C02C
Track not present in AccurateRip database
Copy OK

Track 7

Filename H:\CD Images\Killing Joke – 2009 – The Gathering 2008 (CD 1)\07 – Primitive.wav

Peak level 97.7 %
Track quality 99.9 %
Test CRC 0D11BDD4
Copy CRC 0D11BDD4
Track not present in AccurateRip database
Copy OK

Track 8

Filename H:\CD Images\Killing Joke – 2009 – The Gathering 2008 (CD 1)\08 – Eighties.wav

Peak level 97.7 %
Track quality 99.9 %
Test CRC BE0CF831
Copy CRC BE0CF831
Track not present in AccurateRip database
Copy OK

Track 9

Filename H:\CD Images\Killing Joke – 2009 – The Gathering 2008 (CD 1)\09 – The Fall Of Because.wav

Pre-gap length 0:00:00.01

Peak level 97.7 %
Track quality 100.0 %
Test CRC 7ADDA615
Copy CRC 7ADDA615
Track not present in AccurateRip database
Copy OK

Track 10

Filename H:\CD Images\Killing Joke – 2009 – The Gathering 2008 (CD 1)\10 – Tension.wav

Peak level 97.7 %
Track quality 100.0 %
Test CRC D7C55272
Copy CRC D7C55272
Track not present in AccurateRip database
Copy OK

Track 11

Filename H:\CD Images\Killing Joke – 2009 – The Gathering 2008 (CD 1)\11 – Unspeakable.wav

Peak level 97.7 %
Track quality 100.0 %
Test CRC 7BAB80D1
Copy CRC 7BAB80D1
Track not present in AccurateRip database
Copy OK

None of the tracks are present in the AccurateRip database

No errors occurred

End of status report

Exact Audio Copy V0.99 prebeta 4 from 23. January 2008

EAC extraction logfile from 10. June 2009, 17:49

Killing Joke / The Gathering 2008 (CD 2)

Used drive : TSSTcorpCDDVDW SH-S202J Adapter: 0 ID: 0

Read mode : Secure
Utilize accurate stream : Yes
Defeat audio cache : Yes
Make use of C2 pointers : No

Read offset correction : 6
Overread into Lead-In and Lead-Out : No
Fill up missing offset samples with silence : Yes
Delete leading and trailing silent blocks : No
Null samples used in CRC calculations : Yes
Used interface : Native Win32 interface for Win NT & 2000
Gap handling : Appended to previous track

Used output format : User Defined Encoder
Selected bitrate : 320 kBit/s
Quality : High
Add ID3 tag : No
Command line compressor : C:\Program Files\FLAC\flac.exe
Additional command line options : -V -8 -T “ARTIST=%a” -T “TITLE=%t” -T “ALBUM=%g” -T “DATE=%y” -T “TRACKNUMBER=%n” -T “GENRE=%m” %s

TOC of the extracted CD

Track | Start | Length | Start sector | End sector
———————————————————
1 | 0:00.00 | 4:29.38 | 0 | 20212
2 | 4:29.38 | 5:00.59 | 20213 | 42771
3 | 9:30.22 | 6:21.34 | 42772 | 71380
4 | 15:51.56 | 3:33.29 | 71381 | 87384
5 | 19:25.10 | 4:41.73 | 87385 | 108532
6 | 24:07.08 | 4:02.10 | 108533 | 126692
7 | 28:09.18 | 7:04.27 | 126693 | 158519
8 | 35:13.45 | 8:22.31 | 158520 | 196200
9 | 43:36.01 | 4:59.10 | 196201 | 218635
10 | 48:35.11 | 5:33.50 | 218636 | 243660

Track 1

Filename H:\CD Images\Killing Joke – 2009 – The Gathering 2008 (CD 2)\01 – Who Told You How .wav

Pre-gap length 0:00:02.00

Peak level 97.7 %
Track quality 100.0 %
Test CRC 8877548F
Copy CRC 8877548F
Track not present in AccurateRip database
Copy OK

Track 2

Filename H:\CD Images\Killing Joke – 2009 – The Gathering 2008 (CD 2)\02 – Butcher.wav

Peak level 97.7 %
Track quality 100.0 %
Test CRC 6C959090
Copy CRC 6C959090
Track not present in AccurateRip database
Copy OK

Track 3

Filename H:\CD Images\Killing Joke – 2009 – The Gathering 2008 (CD 2)\03 – Madness.wav

Peak level 97.7 %
Track quality 100.0 %
Test CRC 0AD8502F
Copy CRC 0AD8502F
Track not present in AccurateRip database
Copy OK

Track 4

Filename H:\CD Images\Killing Joke – 2009 – The Gathering 2008 (CD 2)\04 – Exit.wav

Pre-gap length 0:00:00.01

Peak level 97.7 %
Track quality 100.0 %
Test CRC 4315285A
Copy CRC 4315285A
Track not present in AccurateRip database
Copy OK

Track 5

Filename H:\CD Images\Killing Joke – 2009 – The Gathering 2008 (CD 2)\05 – Follow The Leaders.wav

Peak level 97.7 %
Track quality 100.0 %
Test CRC 08C2B319
Copy CRC 08C2B319
Track not present in AccurateRip database
Copy OK

Track 6

Filename H:\CD Images\Killing Joke – 2009 – The Gathering 2008 (CD 2)\06 – The Wait.wav

Peak level 97.7 %
Track quality 100.0 %
Test CRC 082B22DD
Copy CRC 082B22DD
Track not present in AccurateRip database
Copy OK

Track 7

Filename H:\CD Images\Killing Joke – 2009 – The Gathering 2008 (CD 2)\07 – Pssyche.wav

Peak level 97.7 %
Track quality 99.9 %
Test CRC 48AFDE1F
Copy CRC 48AFDE1F
Track not present in AccurateRip database
Copy OK

Track 8

Filename H:\CD Images\Killing Joke – 2009 – The Gathering 2008 (CD 2)\08 – Love Like Blood.wav

Peak level 97.7 %
Track quality 99.9 %
Test CRC B8CEBE11
Copy CRC B8CEBE11
Track not present in AccurateRip database
Copy OK

Track 9

Filename H:\CD Images\Killing Joke – 2009 – The Gathering 2008 (CD 2)\09 – Change.wav

Peak level 97.7 %
Track quality 100.0 %
Test CRC 0ECC4161
Copy CRC 0ECC4161
Track not present in AccurateRip database
Copy OK

Track 10

Filename H:\CD Images\Killing Joke – 2009 – The Gathering 2008 (CD 2)\10 – Are You Receiving .wav

Peak level 97.7 %
Track quality 100.0 %
Test CRC 133948A4
Copy CRC 133948A4
Track not present in AccurateRip database
Copy OK

None of the tracks are present in the AccurateRip database

No errors occurred

End of status report

Exact Audio Copy V0.99 prebeta 4 from 23. January 2008

EAC extraction logfile from 12. June 2009, 3:46

Killing Joke / The Gathering 2008 (CD 3)

Used drive : TSSTcorpCDDVDW SH-S202J Adapter: 0 ID: 0

Read mode : Secure
Utilize accurate stream : Yes
Defeat audio cache : Yes
Make use of C2 pointers : No

Read offset correction : 6
Overread into Lead-In and Lead-Out : No
Fill up missing offset samples with silence : Yes
Delete leading and trailing silent blocks : No
Null samples used in CRC calculations : Yes
Used interface : Native Win32 interface for Win NT & 2000
Gap handling : Appended to previous track

Used output format : User Defined Encoder
Selected bitrate : 320 kBit/s
Quality : High
Add ID3 tag : No
Command line compressor : C:\Program Files\FLAC\flac.exe
Additional command line options : -V -8 -T “ARTIST=%a” -T “TITLE=%t” -T “ALBUM=%g” -T “DATE=%y” -T “TRACKNUMBER=%n” -T “GENRE=%m” %s

TOC of the extracted CD

Track | Start | Length | Start sector | End sector
———————————————————
1 | 0:00.00 | 6:04.36 | 0 | 27335
2 | 6:04.36 | 4:12.69 | 27336 | 46304
3 | 10:17.30 | 4:48.42 | 46305 | 67946
4 | 15:05.72 | 6:19.43 | 67947 | 96414
5 | 21:25.40 | 2:50.29 | 96415 | 109193
6 | 24:15.69 | 3:45.21 | 109194 | 126089
7 | 28:01.15 | 5:15.73 | 126090 | 149787
8 | 33:17.13 | 5:24.12 | 149788 | 174099
9 | 38:41.25 | 4:59.74 | 174100 | 196598
10 | 43:41.24 | 4:52.47 | 196599 | 218545

Track 1

Filename H:\CD Images\Killing Joke – 2009 – The Gathering 2008 (CD 3)\01 – The Hum.wav

Pre-gap length 0:00:02.00

Peak level 97.7 %
Track quality 100.0 %
Test CRC CBAFA2F2
Copy CRC CBAFA2F2
Track not present in AccurateRip database
Copy OK

Track 2

Filename H:\CD Images\Killing Joke – 2009 – The Gathering 2008 (CD 3)\02 – Change.wav

Peak level 97.7 %
Track quality 100.0 %
Test CRC 65FBD89C
Copy CRC 65FBD89C
Track not present in AccurateRip database
Copy OK

Track 3

Filename H:\CD Images\Killing Joke – 2009 – The Gathering 2008 (CD 3)\03 – Pssyche.wav

Peak level 97.7 %
Track quality 99.9 %
Test CRC 29EAA10A
Copy CRC 29EAA10A
Track not present in AccurateRip database
Copy OK

Track 4

Filename H:\CD Images\Killing Joke – 2009 – The Gathering 2008 (CD 3)\04 – Love Like Blood.wav

Peak level 97.7 %
Track quality 100.0 %
Test CRC 452254AA
Copy CRC 452254AA
Track not present in AccurateRip database
Copy OK

Track 5

Filename H:\CD Images\Killing Joke – 2009 – The Gathering 2008 (CD 3)\05 – Eighties.wav

Peak level 97.7 %
Track quality 100.0 %
Test CRC 59E19C72
Copy CRC 59E19C72
Track not present in AccurateRip database
Copy OK

Track 6

Filename H:\CD Images\Killing Joke – 2009 – The Gathering 2008 (CD 3)\06 – Whiteout.wav

Peak level 97.7 %
Track quality 100.0 %
Test CRC 7982176D
Copy CRC 7982176D
Track not present in AccurateRip database
Copy OK

Track 7

Filename H:\CD Images\Killing Joke – 2009 – The Gathering 2008 (CD 3)\07 – Exorcism.wav

Peak level 97.7 %
Track quality 100.0 %
Test CRC 9631B0A5
Copy CRC 9631B0A5
Track not present in AccurateRip database
Copy OK

Track 8

Filename H:\CD Images\Killing Joke – 2009 – The Gathering 2008 (CD 3)\08 – Labrynth.wav

Peak level 97.7 %
Track quality 100.0 %
Test CRC 58364CE6
Copy CRC 58364CE6
Track not present in AccurateRip database
Copy OK

Track 9

Filename H:\CD Images\Killing Joke – 2009 – The Gathering 2008 (CD 3)\09 – Black Moon.wav

Peak level 97.7 %
Track quality 100.0 %
Test CRC 25A5A1B0
Copy CRC 25A5A1B0
Track not present in AccurateRip database
Copy OK

Track 10

Filename H:\CD Images\Killing Joke – 2009 – The Gathering 2008 (CD 3)\10 – Turn To Red.wav

Peak level 97.7 %
Track quality 100.0 %
Test CRC BA0A2B11
Copy CRC BA0A2B11
Track not present in AccurateRip database
Copy OK

None of the tracks are present in the AccurateRip database

No errors occurred

End of status report

Exact Audio Copy V0.99 prebeta 4 from 23. January 2008

EAC extraction logfile from 12. June 2009, 4:04

Killing Joke / The Gathering 2008 (CD 4)

Used drive : TSSTcorpCDDVDW SH-S202J Adapter: 0 ID: 0

Read mode : Secure
Utilize accurate stream : Yes
Defeat audio cache : Yes
Make use of C2 pointers : No

Read offset correction : 6
Overread into Lead-In and Lead-Out : No
Fill up missing offset samples with silence : Yes
Delete leading and trailing silent blocks : No
Null samples used in CRC calculations : Yes
Used interface : Native Win32 interface for Win NT & 2000
Gap handling : Appended to previous track

Used output format : User Defined Encoder
Selected bitrate : 320 kBit/s
Quality : High
Add ID3 tag : No
Command line compressor : C:\Program Files\FLAC\flac.exe
Additional command line options : -V -8 -T “ARTIST=%a” -T “TITLE=%t” -T “ALBUM=%g” -T “DATE=%y” -T “TRACKNUMBER=%n” -T “GENRE=%m” %s

TOC of the extracted CD

Track | Start | Length | Start sector | End sector
———————————————————
1 | 0:00.00 | 5:21.01 | 0 | 24075
2 | 5:21.01 | 4:28.10 | 24076 | 44185
3 | 9:49.11 | 3:58.55 | 44186 | 62090
4 | 13:47.66 | 3:43.29 | 62091 | 78844
5 | 17:31.20 | 4:11.59 | 78845 | 97728
6 | 21:43.04 | 8:01.03 | 97729 | 133806
7 | 29:44.07 | 4:25.03 | 133807 | 153684
8 | 34:09.10 | 2:44.74 | 153685 | 166058
9 | 36:54.09 | 4:08.25 | 166059 | 184683

Track 1

Filename H:\CD Images\Killing Joke – 2009 – The Gathering 2008 (CD 4)\01 – Communion.wav

Pre-gap length 0:00:02.00

Peak level 97.7 %
Track quality 100.0 %
Test CRC 9B3CFF86
Copy CRC 9B3CFF86
Track not present in AccurateRip database
Copy OK

Track 2

Filename H:\CD Images\Killing Joke – 2009 – The Gathering 2008 (CD 4)\02 – Money Is Not Our God.wav

Peak level 97.7 %
Track quality 100.0 %
Test CRC 82AB993C
Copy CRC 82AB993C
Track not present in AccurateRip database
Copy OK

Track 3

Filename H:\CD Images\Killing Joke – 2009 – The Gathering 2008 (CD 4)\03 – Asteroid.wav

Peak level 97.7 %
Track quality 99.9 %
Test CRC B3CA7F3F
Copy CRC B3CA7F3F
Track not present in AccurateRip database
Copy OK

Track 4

Filename H:\CD Images\Killing Joke – 2009 – The Gathering 2008 (CD 4)\04 – Time Wave.wav

Peak level 97.7 %
Track quality 100.0 %
Test CRC AE01F20E
Copy CRC AE01F20E
Track not present in AccurateRip database
Copy OK

Track 5

Filename H:\CD Images\Killing Joke – 2009 – The Gathering 2008 (CD 4)\05 – The Wait.wav

Pre-gap length 0:00:00.02

Peak level 97.7 %
Track quality 100.0 %
Test CRC 28005007
Copy CRC 28005007
Track not present in AccurateRip database
Copy OK

Track 6

Filename H:\CD Images\Killing Joke – 2009 – The Gathering 2008 (CD 4)\06 – Pandemonium.wav

Peak level 97.7 %
Track quality 100.0 %
Test CRC 3D312A3B
Copy CRC 3D312A3B
Track not present in AccurateRip database
Copy OK

Track 7

Filename H:\CD Images\Killing Joke – 2009 – The Gathering 2008 (CD 4)\07 – The Pandy’s Are Coming.wav

Peak level 97.7 %
Track quality 100.0 %
Test CRC 49949F2E
Copy CRC 49949F2E
Track not present in AccurateRip database
Copy OK

Track 8

Filename H:\CD Images\Killing Joke – 2009 – The Gathering 2008 (CD 4)\08 – Empire Song.wav

Peak level 97.7 %
Track quality 100.0 %
Test CRC FD017F73
Copy CRC FD017F73
Track not present in AccurateRip database
Copy OK

Track 9

Filename H:\CD Images\Killing Joke – 2009 – The Gathering 2008 (CD 4)\09 – Wardance.wav

Peak level 97.7 %
Track quality 100.0 %
Test CRC 391DCA42
Copy CRC 391DCA42
Track not present in AccurateRip database
Copy OK

None of the tracks are present in the AccurateRip database

No errors occurred

End of status report

REM GENRE “Punk Rock”
REM DATE 2009
REM DISCID 9B0AD20B
REM COMMENT “ExactAudioCopy v0.99pb4”
PERFORMER “Killing Joke”
TITLE “The Gathering 2008 (CD 1)”
FILE “01 – Requiem.wav” WAVE
TRACK 01 AUDIO
TITLE “Requiem”
PERFORMER “Killing Joke”
INDEX 01 00:00:00
FILE “02 – Wardance.wav” WAVE
TRACK 02 AUDIO
TITLE “Wardance”
PERFORMER “Killing Joke”
INDEX 01 00:00:00
FILE “03 – Tomorrows World.wav” WAVE
TRACK 03 AUDIO
TITLE “Tomorrows World”
PERFORMER “Killing Joke”
INDEX 01 00:00:00
TRACK 04 AUDIO
TITLE “Bloodsport”
PERFORMER “Killing Joke”
INDEX 00 05:04:11
FILE “04 – Bloodsport.wav” WAVE
INDEX 01 00:00:00
FILE “05 – Complication.wav” WAVE
TRACK 05 AUDIO
TITLE “Complication”
PERFORMER “Killing Joke”
INDEX 01 00:00:00
FILE “06 – S. O. 36.wav” WAVE
TRACK 06 AUDIO
TITLE “S. O. 36”
PERFORMER “Killing Joke”
INDEX 01 00:00:00
FILE “07 – Primitive.wav” WAVE
TRACK 07 AUDIO
TITLE “Primitive”
PERFORMER “Killing Joke”
INDEX 01 00:00:00
FILE “08 – Eighties.wav” WAVE
TRACK 08 AUDIO
TITLE “Eighties”
PERFORMER “Killing Joke”
INDEX 01 00:00:00
TRACK 09 AUDIO
TITLE “The Fall Of Because”
PERFORMER “Killing Joke”
INDEX 00 03:13:20
FILE “09 – The Fall Of Because.wav” WAVE
INDEX 01 00:00:00
FILE “10 – Tension.wav” WAVE
TRACK 10 AUDIO
TITLE “Tension”
PERFORMER “Killing Joke”
INDEX 01 00:00:00
FILE “11 – Unspeakable.wav” WAVE
TRACK 11 AUDIO
TITLE “Unspeakable”
PERFORMER “Killing Joke”
INDEX 01 00:00:00

REM GENRE “Punk Rock”
REM DATE 2009
REM DISCID 8A0CB00A
REM COMMENT “ExactAudioCopy v0.99pb4”
PERFORMER “Killing Joke”
TITLE “The Gathering 2008 (CD 2)”
FILE “01 – Who Told You How .wav” WAVE
TRACK 01 AUDIO
TITLE “Who Told You How?”
PERFORMER “Killing Joke”
INDEX 01 00:00:00
FILE “02 – Butcher.wav” WAVE
TRACK 02 AUDIO
TITLE “Butcher”
PERFORMER “Killing Joke”
INDEX 01 00:00:00
FILE “03 – Madness.wav” WAVE
TRACK 03 AUDIO
TITLE “Madness”
PERFORMER “Killing Joke”
INDEX 01 00:00:00
TRACK 04 AUDIO
TITLE “Exit”
PERFORMER “Killing Joke”
INDEX 00 06:21:33
FILE “04 – Exit.wav” WAVE
INDEX 01 00:00:00
FILE “05 – Follow The Leaders.wav” WAVE
TRACK 05 AUDIO
TITLE “Follow The Leaders”
PERFORMER “Killing Joke”
INDEX 01 00:00:00
FILE “06 – The Wait.wav” WAVE
TRACK 06 AUDIO
TITLE “The Wait”
PERFORMER “Killing Joke”
INDEX 01 00:00:00
FILE “07 – Pssyche.wav” WAVE
TRACK 07 AUDIO
TITLE “Pssyche”
PERFORMER “Killing Joke”
INDEX 01 00:00:00
FILE “08 – Love Like Blood.wav” WAVE
TRACK 08 AUDIO
TITLE “Love Like Blood”
PERFORMER “Killing Joke”
INDEX 01 00:00:00
FILE “09 – Change.wav” WAVE
TRACK 09 AUDIO
TITLE “Change”
PERFORMER “Killing Joke”
INDEX 01 00:00:00
FILE “10 – Are You Receiving .wav” WAVE
TRACK 10 AUDIO
TITLE “Are You Receiving?”
PERFORMER “Killing Joke”
INDEX 01 00:00:00

REM GENRE “Punk Rock”
REM DATE 2009
REM DISCID 990B610A
REM COMMENT “ExactAudioCopy v0.99pb4”
PERFORMER “Killing Joke”
TITLE “The Gathering 2008 (CD 3)”
FILE “01 – The Hum.wav” WAVE
TRACK 01 AUDIO
TITLE “The Hum”
PERFORMER “Killing Joke”
INDEX 01 00:00:00
FILE “02 – Change.wav” WAVE
TRACK 02 AUDIO
TITLE “Change”
PERFORMER “Killing Joke”
INDEX 01 00:00:00
FILE “03 – Pssyche.wav” WAVE
TRACK 03 AUDIO
TITLE “Pssyche”
PERFORMER “Killing Joke”
INDEX 01 00:00:00
FILE “04 – Love Like Blood.wav” WAVE
TRACK 04 AUDIO
TITLE “Love Like Blood”
PERFORMER “Killing Joke”
INDEX 01 00:00:00
FILE “05 – Eighties.wav” WAVE
TRACK 05 AUDIO
TITLE “Eighties”
PERFORMER “Killing Joke”
INDEX 01 00:00:00
FILE “06 – Whiteout.wav” WAVE
TRACK 06 AUDIO
TITLE “Whiteout”
PERFORMER “Killing Joke”
INDEX 01 00:00:00
FILE “07 – Exorcism.wav” WAVE
TRACK 07 AUDIO
TITLE “Exorcism”
PERFORMER “Killing Joke”
INDEX 01 00:00:00
FILE “08 – Labrynth.wav” WAVE
TRACK 08 AUDIO
TITLE “Labrynth”
PERFORMER “Killing Joke”
INDEX 01 00:00:00
FILE “09 – Black Moon.wav” WAVE
TRACK 09 AUDIO
TITLE “Black Moon”
PERFORMER “Killing Joke”
INDEX 01 00:00:00
FILE “10 – Turn To Red.wav” WAVE
TRACK 10 AUDIO
TITLE “Turn To Red”
PERFORMER “Killing Joke”
INDEX 01 00:00:00

REM GENRE “Punk Rock”
REM DATE 2009
REM DISCID 67099E09
REM COMMENT “ExactAudioCopy v0.99pb4”
PERFORMER “Killing Joke”
TITLE “The Gathering 2008 (CD 4)”
FILE “01 – Communion.wav” WAVE
TRACK 01 AUDIO
TITLE “Communion”
PERFORMER “Killing Joke”
INDEX 01 00:00:00
FILE “02 – Money Is Not Our God.wav” WAVE
TRACK 02 AUDIO
TITLE “Money Is Not Our God”
PERFORMER “Killing Joke”
INDEX 01 00:00:00
FILE “03 – Asteroid.wav” WAVE
TRACK 03 AUDIO
TITLE “Asteroid”
PERFORMER “Killing Joke”
INDEX 01 00:00:00
FILE “04 – Time Wave.wav” WAVE
TRACK 04 AUDIO
TITLE “Time Wave”
PERFORMER “Killing Joke”
INDEX 01 00:00:00
TRACK 05 AUDIO
TITLE “The Wait”
PERFORMER “Killing Joke”
INDEX 00 03:43:27
FILE “05 – The Wait.wav” WAVE
INDEX 01 00:00:00
FILE “06 – Pandemonium.wav” WAVE
TRACK 06 AUDIO
TITLE “Pandemonium”
PERFORMER “Killing Joke”
INDEX 01 00:00:00
FILE “07 – The Pandy’s Are Coming.wav” WAVE
TRACK 07 AUDIO
TITLE “The Pandy’s Are Coming”
PERFORMER “Killing Joke”
INDEX 01 00:00:00
FILE “08 – Empire Song.wav” WAVE
TRACK 08 AUDIO
TITLE “Empire Song”
PERFORMER “Killing Joke”
INDEX 01 00:00:00
FILE “09 – Wardance.wav” WAVE
TRACK 09 AUDIO
TITLE “Wardance”
PERFORMER “Killing Joke”
INDEX 01 00:00:00


Leave a Reply

Your email address will not be published. Required fields are marked *

This site uses Akismet to reduce spam. Learn how your comment data is processed.