Killing Joke – RMXD




Artist: Killing Joke
Year: 2008
Genre: Alternative
Notes: Discogs
Add. Notes:
Cover incl.: Yes
Encoder: FLAC
Bitrate: ~900 kBit/s (44.1 kHz/16 Bit/s)
Log & Cue incl.: Yes
Size: 475,17 MB
Password: “slam” (without ” “)


All Downloads/Hosters are compatible

Download 1
Turbobit.net
Rapidgator.net
UploadEver.com
KatFile.com
UsersDrive.com
Download 2
Turbobit.net
Rapidgator.net
UploadEver.com
KatFile.com
UsersDrive.com
Download 3
Turbobit.net
Rapidgator.net
UploadEver.com
KatFile.com
UsersDrive.com

Tracklist:

1 - Eighties (Serious Dance Mix) - 6:03
2 - Blue Feather (Dub) - 4:08
3 - A New Day (Dub) - 4:49
4 - Love Like Blood (Extended 12" Mix) - 6:41
5 - Kings And Queens (A Right Royal Mix) - 4:54
6 - Blue Feather (Extended Mix) - 4:57
7 - Eighties (Coming Mix) - 3:57
8 - Dance Day - 4:04
9 - Wardance (The RAF Mix) - 3:45
10 - Sanity (The Roman Mix) - 5:10
11 - Ecstasy (The Extended Mix) - 6:31
12 - Adorations (Instrumental Mix) - 4:23
13 - Love Like Blood (The '86 Remix) - 6:21
14 - Stay One Jump Ahead (Extended Mix) - 5:44
15 - America (Dub) - 4:19

EAC-Log, CUE-Sheed & NFO:

Click to open spoiler
Exact Audio Copy V0.99 prebeta 5 from 4. May 2009

EAC extraction logfile from 13. August 2010, 14:45

Killing Joke / RMXD

Used drive : HL-DT-STDVD-RAM GH22NP20 Adapter: 0 ID: 0

Read mode : Secure
Utilize accurate stream : Yes
Defeat audio cache : No
Make use of C2 pointers : No

Read offset correction : 102
Overread into Lead-In and Lead-Out : No
Fill up missing offset samples with silence : Yes
Delete leading and trailing silent blocks : No
Null samples used in CRC calculations : No
Used interface : Native Win32 interface for Win NT & 2000

Used output format : Internal WAV Routines
Sample format : 44.100 Hz; 16 Bit; Stereo

TOC of the extracted CD

Track | Start | Length | Start sector | End sector
———————————————————
1 | 0:00.00 | 6:02.62 | 0 | 27211
2 | 6:02.62 | 4:08.12 | 27212 | 45823
3 | 10:10.74 | 4:48.74 | 45824 | 67497
4 | 14:59.73 | 6:41.11 | 67498 | 97583
5 | 21:41.09 | 4:53.46 | 97584 | 119604
6 | 26:34.55 | 4:57.33 | 119605 | 141912
7 | 31:32.13 | 3:56.67 | 141913 | 159679
8 | 35:29.05 | 4:04.24 | 159680 | 178003
9 | 39:33.29 | 3:44.48 | 178004 | 194851
10 | 43:18.02 | 5:10.01 | 194852 | 218102
11 | 48:28.03 | 6:31.16 | 218103 | 247443
12 | 54:59.19 | 4:23.32 | 247444 | 267200
13 | 59:22.51 | 6:21.00 | 267201 | 295775
14 | 65:43.51 | 5:44.13 | 295776 | 321588
15 | 71:27.64 | 4:19.09 | 321589 | 341022

Range status and errors

Selected range

Filename C:\Documents and Settings\Owner.WinXP\My Documents\WAVS\RMXD\Killing Joke – RMXD.wav

Peak level 99.1 %
Range quality 99.9 %
Copy CRC E210BAE9
Copy OK

No errors occurred

AccurateRip summary

Track 1 accurately ripped (confidence 6) [CF9C30AC]
Track 2 accurately ripped (confidence 6) [68BE40CF]
Track 3 accurately ripped (confidence 6) [808E036E]
Track 4 accurately ripped (confidence 6) [936C62E5]
Track 5 accurately ripped (confidence 6) [8D02AE93]
Track 6 accurately ripped (confidence 6) [93CDC534]
Track 7 accurately ripped (confidence 6) [3AC27A45]
Track 8 accurately ripped (confidence 6) [AA1EC1C1]
Track 9 accurately ripped (confidence 6) [0E1D0C54]
Track 10 accurately ripped (confidence 6) [528C6361]
Track 11 accurately ripped (confidence 6) [86DD5AED]
Track 12 accurately ripped (confidence 6) [F71F0B4F]
Track 13 accurately ripped (confidence 6) [5894C9D8]
Track 14 accurately ripped (confidence 6) [96AACDD7]
Track 15 accurately ripped (confidence 6) [204DD054]

All tracks accurately ripped

End of status report
,,REM GENRE Alternative
REM DATE 2008
REM DISCID C511C20F
REM COMMENT “ExactAudioCopy v0.99pb5”
PERFORMER “Killing Joke”
TITLE “RMXD”
FILE “Killing Joke – RMXD.flac” WAVE
TRACK 01 AUDIO
TITLE “Eighties [Serious Dance Mix]”
PERFORMER “Killing Joke”
INDEX 01 00:00:00
TRACK 02 AUDIO
TITLE “Blue Feather [Dub Version]”
PERFORMER “Killing Joke”
INDEX 00 06:02:11
INDEX 01 06:02:62
TRACK 03 AUDIO
TITLE “A New Day [Dub Version]”
PERFORMER “Killing Joke”
INDEX 00 10:09:74
INDEX 01 10:10:74
TRACK 04 AUDIO
TITLE “Love Like Blood [Extended 12” Mix]”
PERFORMER “Killing Joke”
INDEX 00 14:58:30
INDEX 01 14:59:73
TRACK 05 AUDIO
TITLE “Kings And Queens [A Right Royal Mix]”
PERFORMER “Killing Joke”
INDEX 00 21:41:07
INDEX 01 21:41:09
TRACK 06 AUDIO
TITLE “Blue Feather [Extended Mix]”
PERFORMER “Killing Joke”
INDEX 00 26:34:50
INDEX 01 26:34:55
TRACK 07 AUDIO
TITLE “Eighties [Coming Mix]”
PERFORMER “Killing Joke”
INDEX 00 31:32:09
INDEX 01 31:32:13
TRACK 08 AUDIO
TITLE “Dance Day”
PERFORMER “Killing Joke”
INDEX 00 35:28:11
INDEX 01 35:29:05
TRACK 09 AUDIO
TITLE “Wardance [’86 Remix]”
PERFORMER “Killing Joke”
INDEX 00 39:32:13
INDEX 01 39:33:29
TRACK 10 AUDIO
TITLE “Sanity [The Roman Mix]”
PERFORMER “Killing Joke”
INDEX 00 43:16:59
INDEX 01 43:18:02
TRACK 11 AUDIO
TITLE “Ecstacy [Extended Mix]”
PERFORMER “Killing Joke”
INDEX 00 48:27:06
INDEX 01 48:28:03
TRACK 12 AUDIO
TITLE “Adorations [Instrumental Version]”
PERFORMER “Killing Joke”
INDEX 00 54:58:63
INDEX 01 54:59:19
TRACK 13 AUDIO
TITLE “Love Like Blood [’86 Remix]”
PERFORMER “Killing Joke”
INDEX 00 59:21:74
INDEX 01 59:22:51
TRACK 14 AUDIO
TITLE “Stay One Jump Ahead [Extended Mix]”
PERFORMER “Killing Joke”
INDEX 00 65:42:30
INDEX 01 65:43:51
TRACK 15 AUDIO
TITLE “America [Dub Version]”
PERFORMER “Killing Joke”
INDEX 00 71:27:16
INDEX 01 71:27:64


Leave a Reply

Your email address will not be published. Required fields are marked *

Enter the text from the image below
 

This site uses Akismet to reduce spam. Learn how your comment data is processed.