Killing Joke – Revelations (Remastered)




Artist: Killing Joke
Year: 1982/2005
Genre: Punk
Notes: Discogs
Add. Notes: Remastered
Cover incl.: Yes
Encoder: FLAC
Bitrate: ~900 kBit/s (44.1 kHz/16 Bit/s)
Log & Cue incl.: Yes
Size: 273,06 MB
Password: “slam” (without ” “)


All Downloads/Hosters are compatible

Download 1
Turbobit.net
Rapidgator.net
KatFile.com
UploadRar.com
Download 2
Turbobit.net
Rapidgator.net
KatFile.com
UploadRar.com

Tracklist:

1 - The Hum - 4:58
2 - Empire Song - 3:19
3 - We Have Joy - 2:56
4 - Chop-chop - 4:19
5 - The Pandys Are Coming - 4:27
6 - Chapter III - 3:13
7 - Have A Nice Day - 3:13
8 - Land Of Milk And Honey - 2:38
9 - Good Samaritan - 3:28
10 - Dregs - 4:57
Bonus Track
11 - We Have Joy (Alternate Mix) - 4:21

EAC-Log, CUE-Sheed & NFO:

Click to open spoiler
Exact Audio Copy V0.99 prebeta 5 from 4. May 2009

EAC extraction logfile from 13. August 2010, 14:25

Killing Joke / Revelations

Used drive : HL-DT-STDVD-RAM GH22NP20 Adapter: 0 ID: 0

Read mode : Secure
Utilize accurate stream : Yes
Defeat audio cache : No
Make use of C2 pointers : No

Read offset correction : 102
Overread into Lead-In and Lead-Out : No
Fill up missing offset samples with silence : Yes
Delete leading and trailing silent blocks : No
Null samples used in CRC calculations : No
Used interface : Native Win32 interface for Win NT & 2000

Used output format : Internal WAV Routines
Sample format : 44.100 Hz; 16 Bit; Stereo

TOC of the extracted CD

Track | Start | Length | Start sector | End sector
———————————————————
1 | 0:00.00 | 4:58.58 | 0 | 22407
2 | 4:58.58 | 3:19.19 | 22408 | 37351
3 | 8:18.02 | 2:56.50 | 37352 | 50601
4 | 11:14.52 | 4:19.19 | 50602 | 70045
5 | 15:33.71 | 4:27.50 | 70046 | 90120
6 | 20:01.46 | 3:13.46 | 90121 | 104641
7 | 23:15.17 | 3:13.68 | 104642 | 119184
8 | 26:29.10 | 2:38.15 | 119185 | 131049
9 | 29:07.25 | 3:28.45 | 131050 | 146694
10 | 32:35.70 | 4:57.04 | 146695 | 168973
11 | 37:32.74 | 4:21.47 | 168974 | 188595
REM GENRE Post-Punk
REM DATE 1982
REM DISCID 9009D20B
REM COMMENT “ExactAudioCopy v0.99pb5”
PERFORMER “Killing Joke”
TITLE “Revelations”
FILE “Killing Joke – Revelations.wav” WAVE
TRACK 01 AUDIO
TITLE “The Hum”
PERFORMER “Killing Joke”
INDEX 01 00:00:00
TRACK 02 AUDIO
TITLE “Empire Song”
PERFORMER “Killing Joke”
INDEX 00 04:58:36
INDEX 01 04:58:58
TRACK 03 AUDIO
TITLE “We Have Joy”
PERFORMER “Killing Joke”
INDEX 00 08:17:03
INDEX 01 08:18:02
TRACK 04 AUDIO
TITLE “Chop Chop”
PERFORMER “Killing Joke”
INDEX 00 11:14:43
INDEX 01 11:14:52
TRACK 05 AUDIO
TITLE “The Pandys Are Coming”
PERFORMER “Killing Joke”
INDEX 00 15:32:74
INDEX 01 15:33:71
TRACK 06 AUDIO
TITLE “Chapter III”
PERFORMER “Killing Joke”
INDEX 00 20:00:41
INDEX 01 20:01:46
TRACK 07 AUDIO
TITLE “Have A Nice Day”
PERFORMER “Killing Joke”
INDEX 00 23:14:59
INDEX 01 23:15:17
TRACK 08 AUDIO
TITLE “Land Of Milk And Honey”
PERFORMER “Killing Joke”
INDEX 00 26:28:08
INDEX 01 26:29:10
TRACK 09 AUDIO
TITLE “Good Samaritan”
PERFORMER “Killing Joke”
INDEX 00 29:06:18
INDEX 01 29:07:25
TRACK 10 AUDIO
TITLE “Dregs”
PERFORMER “Killing Joke”
INDEX 01 32:35:70
TRACK 11 AUDIO
TITLE “We Have Joy [Alternate Mix]”
PERFORMER “Killing Joke”
INDEX 00 37:29:11
INDEX 01 37:32:74

Range status and errors

Selected range

Filename C:\Documents and Settings\Owner.WinXP\My Documents\WAVS\Revelations\Killing Joke – Revelations.wav

Peak level 99.1 %
Range quality 100.0 %
Copy CRC 6455BEF7
Copy OK

No errors occurred

AccurateRip summary

Track 1 cannot be verified as accurate (confidence 8) [55819907], AccurateRip returned [D6674657]
Track 2 cannot be verified as accurate (confidence 8) [06A500A2], AccurateRip returned [944A4B10]
Track 3 cannot be verified as accurate (confidence 8) [80B56583], AccurateRip returned [913F0EEB]
Track 4 cannot be verified as accurate (confidence 8) [10A6E49B], AccurateRip returned [4E0D3391]
Track 5 cannot be verified as accurate (confidence 8) [CFB9DD19], AccurateRip returned [67696D1D]
Track 6 cannot be verified as accurate (confidence 8) [823D055A], AccurateRip returned [AE905706]
Track 7 cannot be verified as accurate (confidence 8) [E128BF47], AccurateRip returned [8FD69D9F]
Track 8 cannot be verified as accurate (confidence 8) [41B01413], AccurateRip returned [F21CF76B]
Track 9 cannot be verified as accurate (confidence 7) [41958695], AccurateRip returned [091F6276]
Track 10 cannot be verified as accurate (confidence 7) [9BEF9374], AccurateRip returned [EF838659]
Track 11 cannot be verified as accurate (confidence 7) [7ACA032C], AccurateRip returned [7674B7F2]

No tracks could be verified as accurate
You may have a different pressing from the one(s) in the database

End of status report


Leave a Reply

Your email address will not be published. Required fields are marked *

Enter the text from the image below
 

This site uses Akismet to reduce spam. Learn how your comment data is processed.