Killing Joke – Pandemonium




Artist: Killing Joke
Year: 1994
Genre: Punk
Notes: Discogs
Add. Notes:
Cover incl.: Yes
Encoder: FLAC
Bitrate: ~900 kBit/s (44.1 kHz/16 Bit/s)
Log & Cue incl.: Yes
Size: 395,25 MB
Password: “slam” (without ” “)


All Downloads/Hosters are compatible

Download 1
Turbobit.net
Rapidgator.net
KatFile.com
UploadRar.com
Download 2
Turbobit.net
Rapidgator.net
KatFile.com
UploadRar.com

Tracklist:

1 - Pandemonium - 6:42
2 - Exorcism - 7:27
3 - Millennium - 5:35
4 - Communion - 6:57
5 - Black Moon - 5:19
6 - Labyrinth - 5:55
7 - Jana - 4:06
8 - Whiteout - 5:43
9 - Pleasures Of The Flesh - 5:42
10 - Mathematics Of Chaos - 7:23

EAC-Log, CUE-Sheed & NFO:

Click to open spoiler
Exact Audio Copy V0.99 prebeta 5 from 4. May 2009

EAC extraction logfile from 7. November 2009, 9:53

Killing Joke / Pandemonium

Used drive : HL-DT-STDVD-RAM GH22NP20 Adapter: 0 ID: 0

Read mode : Secure
Utilize accurate stream : Yes
Defeat audio cache : Yes
Make use of C2 pointers : No

Read offset correction : 102
Overread into Lead-In and Lead-Out : No
Fill up missing offset samples with silence : Yes
Delete leading and trailing silent blocks : No
Null samples used in CRC calculations : Yes
Used interface : Installed external ASPI interface
Gap handling : Appended to previous track

Used output format : User Defined Encoder
Selected bitrate : 768 kBit/s
Quality : High
Add ID3 tag : No
Command line compressor : C:\Program Files\FLAC\flac.exe
Additional command line options : -6 -V -T “ARTIST=%a” -T “TITLE=%t” -T “ALBUM=%g” -T “DATE=%y” -T “TRACKNUMBER=%n” -T “GENRE=%m” -T “COMMENT=%e” %s -o %d

TOC of the extracted CD

Track | Start | Length | Start sector | End sector
———————————————————
1 | 0:00.27 | 6:41.45 | 27 | 30146
2 | 6:41.72 | 7:27.03 | 30147 | 63674
3 | 14:09.00 | 5:34.50 | 63675 | 88774
4 | 19:43.50 | 6:56.52 | 88775 | 120026
5 | 26:40.27 | 5:19.23 | 120027 | 143974
6 | 31:59.50 | 5:55.17 | 143975 | 170616
7 | 37:54.67 | 4:06.18 | 170617 | 189084
8 | 42:01.10 | 5:43.22 | 189085 | 214831
9 | 47:44.32 | 5:42.13 | 214832 | 240494
10 | 53:26.45 | 7:23.32 | 240495 | 273751

Track 1

Filename C:\Program Files\Exact Audio Copy\Flac\Killing Joke – Pandemonium – 01 – Pandemonium.wav

Pre-gap length 0:00:02.27

Peak level 100.0 %
Track quality 100.0 %
Test CRC 9753CB59
Copy CRC 9753CB59
Accurately ripped (confidence 1) [20ECC9B6]
Copy OK

Track 2

Filename C:\Program Files\Exact Audio Copy\Flac\Killing Joke – Pandemonium – 02 – Exorcism.wav

Pre-gap length 0:00:01.02

Peak level 94.7 %
Track quality 100.0 %
Test CRC 16A40B1D
Copy CRC 16A40B1D
Accurately ripped (confidence 1) [2E4EF064]
Copy OK

Track 3

Filename C:\Program Files\Exact Audio Copy\Flac\Killing Joke – Pandemonium – 03 – Millenium.wav

Pre-gap length 0:00:01.00

Peak level 100.0 %
Track quality 100.0 %
Test CRC 9CDBA375
Copy CRC 9CDBA375
Accurately ripped (confidence 1) [9EB272E0]
Copy OK

Track 4

Filename C:\Program Files\Exact Audio Copy\Flac\Killing Joke – Pandemonium – 04 – Communion.wav

Pre-gap length 0:00:02.05

Peak level 91.1 %
Track quality 100.0 %
Test CRC 1EC5D16D
Copy CRC 1EC5D16D
Accurately ripped (confidence 1) [F8094660]
Copy OK

Track 5

Filename C:\Program Files\Exact Audio Copy\Flac\Killing Joke – Pandemonium – 05 – Black Moon.wav

Pre-gap length 0:00:00.35

Peak level 89.3 %
Track quality 100.0 %
Test CRC 4CF662A5
Copy CRC 4CF662A5
Accurately ripped (confidence 1) [96C2F5A6]
Copy OK

Track 6

Filename C:\Program Files\Exact Audio Copy\Flac\Killing Joke – Pandemonium – 06 – Labyrinth.wav

Pre-gap length 0:00:00.15

Peak level 96.8 %
Track quality 100.0 %
Test CRC 34AD5266
Copy CRC 34AD5266
Accurately ripped (confidence 1) [9F1139BE]
Copy OK

Track 7

Filename C:\Program Files\Exact Audio Copy\Flac\Killing Joke – Pandemonium – 07 – Jana.wav

Pre-gap length 0:00:00.22

Peak level 96.1 %
Track quality 100.0 %
Test CRC C3A16FC7
Copy CRC C3A16FC7
Accurately ripped (confidence 1) [4BC7ED36]
Copy OK

Track 8

Filename C:\Program Files\Exact Audio Copy\Flac\Killing Joke – Pandemonium – 08 – Whiteout.wav

Peak level 97.9 %
Track quality 100.0 %
Test CRC 6E31557F
Copy CRC 6E31557F
Accurately ripped (confidence 1) [D17CB626]
Copy OK

Track 9

Filename C:\Program Files\Exact Audio Copy\Flac\Killing Joke – Pandemonium – 09 – Pleasures Of The Flesh.wav

Pre-gap length 0:00:00.70

Peak level 96.7 %
Track quality 100.0 %
Test CRC 0E0FB193
Copy CRC 0E0FB193
Accurately ripped (confidence 1) [85F5B194]
Copy OK

Track 10

Filename C:\Program Files\Exact Audio Copy\Flac\Killing Joke – Pandemonium – 10 – Mathematics Of Chaos.wav

Pre-gap length 0:00:01.58

Peak level 100.0 %
Track quality 100.0 %
Test CRC DE020717
Copy CRC DE020717
Accurately ripped (confidence 1) [B5027110]
Copy OK

All tracks accurately ripped

No errors occurred

End of status report

REM DISCID 7C0E420A
REM COMMENT “ExactAudioCopy v0.99pb5”
PERFORMER “Killing Joke”
TITLE “Pandemonium”
FILE “Killing Joke – Pandemonium – 01 – Pandemonium.wav” WAVE
TRACK 01 AUDIO
TITLE “Pandemonium”
PERFORMER “Killing Joke”
PREGAP 00:00:27
INDEX 01 00:00:00
TRACK 02 AUDIO
TITLE “Exorcism”
PERFORMER “Killing Joke”
INDEX 00 06:40:43
FILE “Killing Joke – Pandemonium – 02 – Exorcism.wav” WAVE
INDEX 01 00:00:00
TRACK 03 AUDIO
TITLE “Millenium”
PERFORMER “Killing Joke”
INDEX 00 07:26:03
FILE “Killing Joke – Pandemonium – 03 – Millenium.wav” WAVE
INDEX 01 00:00:00
TRACK 04 AUDIO
TITLE “Communion”
PERFORMER “Killing Joke”
INDEX 00 05:32:45
FILE “Killing Joke – Pandemonium – 04 – Communion.wav” WAVE
INDEX 01 00:00:00
TRACK 05 AUDIO
TITLE “Black Moon”
PERFORMER “Killing Joke”
INDEX 00 06:56:17
FILE “Killing Joke – Pandemonium – 05 – Black Moon.wav” WAVE
INDEX 01 00:00:00
TRACK 06 AUDIO
TITLE “Labyrinth”
PERFORMER “Killing Joke”
INDEX 00 05:19:08
FILE “Killing Joke – Pandemonium – 06 – Labyrinth.wav” WAVE
INDEX 01 00:00:00
TRACK 07 AUDIO
TITLE “Jana”
PERFORMER “Killing Joke”
INDEX 00 05:54:70
FILE “Killing Joke – Pandemonium – 07 – Jana.wav” WAVE
INDEX 01 00:00:00
FILE “Killing Joke – Pandemonium – 08 – Whiteout.wav” WAVE
TRACK 08 AUDIO
TITLE “Whiteout”
PERFORMER “Killing Joke”
INDEX 01 00:00:00
TRACK 09 AUDIO
TITLE “Pleasures Of The Flesh”
PERFORMER “Killing Joke”
INDEX 00 05:42:27
FILE “Killing Joke – Pandemonium – 09 – Pleasures Of The Flesh.wav” WAVE
INDEX 01 00:00:00
TRACK 10 AUDIO
TITLE “Mathematics Of Chaos”
PERFORMER “Killing Joke”
INDEX 00 05:40:30
FILE “Killing Joke – Pandemonium – 10 – Mathematics Of Chaos.wav” WAVE
INDEX 01 00:00:00


Leave a Reply

Your email address will not be published. Required fields are marked *

Enter the text from the image below
 

This site uses Akismet to reduce spam. Learn how your comment data is processed.