Killing Joke – Night Time (Remastered)




Artist: Killing Joke
Year: 1985/2007
Genre: Rock
Notes: Discogs
Add. Notes: Remastered
Cover incl.: Yes
Encoder: FLAC
Bitrate: ~900 kBit/s (44.1 kHz/16 Bit/s)
Log & Cue incl.: Yes
Size: 510,34 MB
Password: “slam” (without ” “)


All Downloads/Hosters are compatible

Download 1
Turbobit.net
Rapidgator.net
KatFile.com
UsersDrive.com
CloudShare.to
Download 2
Turbobit.net
Rapidgator.net
KatFile.com
UsersDrive.com
CloudShare.to
Download 3
Turbobit.net
Rapidgator.net
KatFile.com
UsersDrive.com
CloudShare.to

Tracklist:

1 - Night Time - 4:56
2 - Darkness Before Dawn - 5:19
3 - Love Like Blood - 6:48
4 - Kings And Queens - 4:37
5 - Tabazan - 4:34
6 - Multitudes - 4:57
7 - Europe - 4:34
8 - Eighties - 3:59
Bonus Tracks
9 - Eighties (Kid Jensen Session 17/4/84) - 2:51
10 - New Culture (Kid Jensen Session 17/4/84) - 3:09
11 - Blue Feather (Kid Jensen Session 17/4/84) - 4:29
12 - All Play Rebel (Kid Jensen Session 17/4/84) - 3:18
13 - A New Day (7") - 4:10
14 - The Madding Crowd - 5:13
15 - Blue Feather (Joke Mix) - 3:59
16 - Love Like Blood (Gestalt Mix) - 5:12
17 - Kings And Queens (Geordie's Dub Mix) - 4:57

EAC-Log, CUE-Sheed & NFO:

Click to open spoiler
Exact Audio Copy V0.99 prebeta 3 from 28. July 2007

EAC extraction logfile from 12. April 2008, 10:58

Killing Joke / Night Time (2007 Remaster)

Used drive : PIONEER DVD-RW DVR-108 Adapter: 0 ID: 0

Read mode : Secure
Utilize accurate stream : Yes
Defeat audio cache : Yes
Make use of C2 pointers : No

Read offset correction : 48
Overread into Lead-In and Lead-Out : No
Fill up missing offset samples with silence : Yes
Delete leading and trailing silent blocks : No
Null samples used in CRC calculations : Yes
Used interface : Native Win32 interface for Win NT & 2000
Gap handling : Appended to previous track

Used output format : Internal WAV Routines
Sample format : 44.100 Hz; 16 Bit; Stereo

TOC of the extracted CD

Track | Start | Length | Start sector | End sector
———————————————————
1 | 0:00.00 | 4:56.59 | 0 | 22258
2 | 4:56.59 | 5:19.05 | 22259 | 46188
3 | 10:15.64 | 6:48.62 | 46189 | 76850
4 | 17:04.51 | 4:37.39 | 76851 | 97664
5 | 21:42.15 | 4:34.16 | 97665 | 118230
6 | 26:16.31 | 4:57.12 | 118231 | 140517
7 | 31:13.43 | 4:34.22 | 140518 | 161089
8 | 35:47.65 | 3:59.21 | 161090 | 179035
9 | 39:47.11 | 2:51.12 | 179036 | 191872
10 | 42:38.23 | 3:09.49 | 191873 | 206096
11 | 45:47.72 | 4:29.05 | 206097 | 226276
12 | 50:17.02 | 3:18.18 | 226277 | 241144
13 | 53:35.20 | 4:10.74 | 241145 | 259968
14 | 57:46.19 | 5:13.52 | 259969 | 283495
15 | 62:59.71 | 3:59.49 | 283496 | 301469
16 | 66:59.45 | 5:12.68 | 301470 | 324937
17 | 72:12.38 | 4:57.66 | 324938 | 347278

Track 1

Filename C:\Lossless\01 – Night Time.wav

Pre-gap length 0:00:02.00

Peak level 98.3 %
Track quality 100.0 %
Test CRC 85E4BC3A
Copy CRC 85E4BC3A
Track not present in AccurateRip database
Copy OK

Track 2

Filename C:\Lossless\02 – Darkness Before Dawn.wav

Pre-gap length 0:00:00.98

Peak level 98.6 %
Track quality 100.0 %
Test CRC 76F06FE3
Copy CRC 76F06FE3
Track not present in AccurateRip database
Copy OK

Track 3

Filename C:\Lossless\03 – Love Like Blood.wav

Pre-gap length 0:00:00.37

Peak level 98.7 %
Track quality 100.0 %
Test CRC DC2194DB
Copy CRC DC2194DB
Track not present in AccurateRip database
Copy OK

Track 4

Filename C:\Lossless\04 – Kings And Queens.wav

Pre-gap length 0:00:00.29

Peak level 98.3 %
Track quality 100.0 %
Test CRC 0E75948D
Copy CRC 0E75948D
Track not present in AccurateRip database
Copy OK

Track 5

Filename C:\Lossless\05 – Tabazan.wav

Pre-gap length 0:00:00.80

Peak level 98.6 %
Track quality 100.0 %
Test CRC 605FE17B
Copy CRC 605FE17B
Track not present in AccurateRip database
Copy OK

Track 6

Filename C:\Lossless\06 – Multitudes.wav

Pre-gap length 0:00:00.57

Peak level 98.5 %
Track quality 100.0 %
Test CRC 2127EF76
Copy CRC 2127EF76
Track not present in AccurateRip database
Copy OK

Track 7

Filename C:\Lossless\07 – Europe.wav

Pre-gap length 0:00:00.66

Peak level 98.8 %
Track quality 99.9 %
Test CRC E39C36C6
Copy CRC E39C36C6
Track not present in AccurateRip database
Copy OK

Track 8

Filename C:\Lossless\08 – Eighties.wav

Pre-gap length 0:00:00.13

Peak level 98.7 %
Track quality 100.0 %
Test CRC 7A5C1B42
Copy CRC 7A5C1B42
Track not present in AccurateRip database
Copy OK

Track 9

Filename C:\Lossless\09 – Eighties (Kid Jensen session).wav

Pre-gap length 0:00:08.52

Peak level 98.5 %
Track quality 100.0 %
Test CRC DAB1B4BE
Copy CRC DAB1B4BE
Track not present in AccurateRip database
Copy OK

Track 10

Filename C:\Lossless\10 – New Culture (Kid Jensen session).wav

Pre-gap length 0:00:00.52

Peak level 98.6 %
Track quality 100.0 %
Test CRC 539A7F88
Copy CRC 539A7F88
Track not present in AccurateRip database
Copy OK

Track 11

Filename C:\Lossless\11 – Blue Feather (Kid Jensen session).wav

Pre-gap length 0:00:00.20

Peak level 98.9 %
Track quality 100.0 %
Test CRC 2A4188EE
Copy CRC 2A4188EE
Track not present in AccurateRip database
Copy OK

Track 12

Filename C:\Lossless\12 – All Play Rebel (Kid Jensen session).wav

Peak level 98.8 %
Track quality 99.9 %
Test CRC DC5AC821
Copy CRC DC5AC821
Track not present in AccurateRip database
Copy OK

Track 13

Filename C:\Lossless\13 – A New Day (7′).wav

Pre-gap length 0:00:00.44

Peak level 98.4 %
Track quality 100.0 %
Test CRC A6E692AB
Copy CRC A6E692AB
Track not present in AccurateRip database
Copy OK

Track 14

Filename C:\Lossless\14 – The Madding Crowd.wav

Pre-gap length 0:00:00.45

Peak level 98.7 %
Track quality 100.0 %
Test CRC 324279D9
Copy CRC 324279D9
Track not present in AccurateRip database
Copy OK

Track 15

Filename C:\Lossless\15 – Blue Feather (Joke mix).wav

Pre-gap length 0:00:00.12

Peak level 98.9 %
Track quality 100.0 %
Test CRC 55C6C71E
Copy CRC 55C6C71E
Track not present in AccurateRip database
Copy OK

Track 16

Filename C:\Lossless\16 – Love Like Blood (Gestalt mix).wav

Pre-gap length 0:00:00.32

Peak level 99.3 %
Track quality 100.0 %
Test CRC 305A4593
Copy CRC 305A4593
Track not present in AccurateRip database
Copy OK

Track 17

Filename C:\Lossless\17 – Kings And Queens (Geordie’s dub mix).wav

Peak level 99.1 %
Track quality 99.9 %
Test CRC 8FE23FBF
Copy CRC 8FE23FBF
Track not present in AccurateRip database
Copy OK

None of the tracks are present in the AccurateRip database

No errors occurred

End of status report

REM GENRE Industrial
REM DATE 2008
REM DISCID FE121611
REM COMMENT “ExactAudioCopy v0.99pb3”
PERFORMER “Killing Joke”
TITLE “Night Time (2007 Remaster)”
FILE “01 – Night Time.wav” WAVE
TRACK 01 AUDIO
TITLE “Night Time”
PERFORMER “Killing Joke”
INDEX 01 00:00:00
TRACK 02 AUDIO
TITLE “Darkness Before Dawn”
PERFORMER “Killing Joke”
INDEX 00 04:55:60
FILE “02 – Darkness Before Dawn.wav” WAVE
INDEX 01 00:00:00
TRACK 03 AUDIO
TITLE “Love Like Blood”
PERFORMER “Killing Joke”
INDEX 00 05:18:52
FILE “03 – Love Like Blood.wav” WAVE
INDEX 01 00:00:00
TRACK 04 AUDIO
TITLE “Kings And Queens”
PERFORMER “Killing Joke”
INDEX 00 06:48:40
FILE “04 – Kings And Queens.wav” WAVE
INDEX 01 00:00:00
TRACK 05 AUDIO
TITLE “Tabazan”
PERFORMER “Killing Joke”
INDEX 00 04:36:54
FILE “05 – Tabazan.wav” WAVE
INDEX 01 00:00:00
TRACK 06 AUDIO
TITLE “Multitudes”
PERFORMER “Killing Joke”
INDEX 00 04:33:48
FILE “06 – Multitudes.wav” WAVE
INDEX 01 00:00:00
TRACK 07 AUDIO
TITLE “Europe”
PERFORMER “Killing Joke”
INDEX 00 04:56:37
FILE “07 – Europe.wav” WAVE
INDEX 01 00:00:00
TRACK 08 AUDIO
TITLE “Eighties”
PERFORMER “Killing Joke”
INDEX 00 04:34:12
FILE “08 – Eighties.wav” WAVE
INDEX 01 00:00:00
TRACK 09 AUDIO
TITLE “Eighties (Kid Jensen session)”
PERFORMER “Killing Joke”
INDEX 00 03:50:57
FILE “09 – Eighties (Kid Jensen session).wav” WAVE
INDEX 01 00:00:00
TRACK 10 AUDIO
TITLE “New Culture (Kid Jensen session)”
PERFORMER “Killing Joke”
INDEX 00 02:50:48
FILE “10 – New Culture (Kid Jensen session).wav” WAVE
INDEX 01 00:00:00
TRACK 11 AUDIO
TITLE “Blue Feather (Kid Jensen session)”
PERFORMER “Killing Joke”
INDEX 00 03:09:34
FILE “11 – Blue Feather (Kid Jensen session).wav” WAVE
INDEX 01 00:00:00
FILE “12 – All Play Rebel (Kid Jensen session).wav” WAVE
TRACK 12 AUDIO
TITLE “All Play Rebel (Kid Jensen session)”
PERFORMER “Killing Joke”
INDEX 01 00:00:00
TRACK 13 AUDIO
TITLE “A New Day (7′)”
PERFORMER “Killing Joke”
INDEX 00 03:17:60
FILE “13 – A New Day (7′).wav” WAVE
INDEX 01 00:00:00
TRACK 14 AUDIO
TITLE “The Madding Crowd”
PERFORMER “Killing Joke”
INDEX 00 04:10:40
FILE “14 – The Madding Crowd.wav” WAVE
INDEX 01 00:00:00
TRACK 15 AUDIO
TITLE “Blue Feather (Joke mix)”
PERFORMER “Killing Joke”
INDEX 00 05:13:43
FILE “15 – Blue Feather (Joke mix).wav” WAVE
INDEX 01 00:00:00
TRACK 16 AUDIO
TITLE “Love Like Blood (Gestalt mix)”
PERFORMER “Killing Joke”
INDEX 00 03:59:25
FILE “16 – Love Like Blood (Gestalt mix).wav” WAVE
INDEX 01 00:00:00
FILE “17 – Kings And Queens (Geordie’s dub mix).wav” WAVE
TRACK 17 AUDIO
TITLE “Kings And Queens (Geordie’s dub mix)”
PERFORMER “Killing Joke”
INDEX 01 00:00:00

Leave a Reply

Your email address will not be published. Required fields are marked *

Enter the text from the image below
 

This site uses Akismet to reduce spam. Learn how your comment data is processed.