Killing Joke – Killing Joke




Artist: Killing Joke
Year: 2003
Genre: Hardcore
Notes: Discogs
Add. Notes:
Cover incl.: Yes
Encoder: FLAC
Bitrate: ~1000 kBit/s (44.1 kHz/16 Bit/s)
Log & Cue incl.: Yes
Size: 406,43 MB
Password: “slam” (without ” “)


All Downloads/Hosters are compatible

Download 1
Turbobit.net
KatFile.com
Rapidgator.net
Usersdrive.com
Download 2
Turbobit.net
KatFile.com
Rapidgator.net
Usersdrive.com

Tracklist:

1 - The Death & Resurrection Show - 6:56
2 - Total Invasion - 5:28
3 - Asteroid - 3:24
4 - Implant - 5:18
5 - Blood On Your Hands - 6:00
6 - Loose Cannon - 4:12
7 - You'll Never Get To Me - 6:19
8 - Seeing Red - 5:27
9 - Dark Forces - 6:26
10 - The House That Pain Built - 6:13

EAC-Log, CUE-Sheed & NFO:

Click to open spoiler
Exact Audio Copy V0.99 prebeta 5 from 4. May 2009

EAC extraction logfile from 6. November 2009, 23:38

Killing Joke / Killing Joke

Used drive : HL-DT-STDVD-RAM GH22NP20 Adapter: 0 ID: 0

Read mode : Secure
Utilize accurate stream : Yes
Defeat audio cache : Yes
Make use of C2 pointers : No

Read offset correction : 102
Overread into Lead-In and Lead-Out : No
Fill up missing offset samples with silence : Yes
Delete leading and trailing silent blocks : No
Null samples used in CRC calculations : Yes
Used interface : Installed external ASPI interface
Gap handling : Appended to previous track

Used output format : User Defined Encoder
Selected bitrate : 768 kBit/s
Quality : High
Add ID3 tag : No
Command line compressor : C:\Program Files\FLAC\flac.exe
Additional command line options : -6 -V -T “ARTIST=%a” -T “TITLE=%t” -T “ALBUM=%g” -T “DATE=%y” -T “TRACKNUMBER=%n” -T “GENRE=%m” -T “COMMENT=%e” %s -o %d

TOC of the extracted CD

Track | Start | Length | Start sector | End sector
———————————————————
1 | 0:00.00 | 6:56.14 | 0 | 31213
2 | 6:56.14 | 5:28.38 | 31214 | 55851
3 | 12:24.52 | 3:24.64 | 55852 | 71215
4 | 15:49.41 | 5:18.55 | 71216 | 95120
5 | 21:08.21 | 6:00.49 | 95121 | 122169
6 | 27:08.70 | 4:12.65 | 122170 | 141134
7 | 31:21.60 | 6:19.16 | 141135 | 169575
8 | 37:41.01 | 5:27.51 | 169576 | 194151
9 | 43:08.52 | 6:26.59 | 194152 | 223160
10 | 49:35.36 | 6:17.08 | 223161 | 251443

Track 1

Filename C:\Program Files\Exact Audio Copy\Flac\Killing Joke – Killing Joke – 01 – The Death & Resurrection Show.wav

Pre-gap length 0:00:02.00

Peak level 99.4 %
Track quality 100.0 %
Test CRC F5F999B1
Copy CRC F5F999B1
Accurately ripped (confidence 3) [92729592]
Copy OK

Track 2

Filename C:\Program Files\Exact Audio Copy\Flac\Killing Joke – Killing Joke – 02 – Total Invasion.wav

Peak level 99.8 %
Track quality 100.0 %
Test CRC ABC2093C
Copy CRC ABC2093C
Accurately ripped (confidence 3) [6D024473]
Copy OK

Track 3

Filename C:\Program Files\Exact Audio Copy\Flac\Killing Joke – Killing Joke – 03 – Asteroid.wav

Peak level 99.8 %
Track quality 99.9 %
Test CRC 164C4B29
Copy CRC 164C4B29
Accurately ripped (confidence 3) [2AB1936A]
Copy OK

Track 4

Filename C:\Program Files\Exact Audio Copy\Flac\Killing Joke – Killing Joke – 04 – Implant.wav

Peak level 99.8 %
Track quality 100.0 %
Test CRC 5DB6C49D
Copy CRC 5DB6C49D
Accurately ripped (confidence 3) [52C4E4A0]
Copy OK

Track 5

Filename C:\Program Files\Exact Audio Copy\Flac\Killing Joke – Killing Joke – 05 – Blood On Your Hands.wav

Peak level 99.8 %
Track quality 100.0 %
Test CRC 5180218C
Copy CRC 5180218C
Accurately ripped (confidence 3) [3C452F70]
Copy OK

Track 6

Filename C:\Program Files\Exact Audio Copy\Flac\Killing Joke – Killing Joke – 06 – Loose Cannon.wav

Peak level 99.8 %
Track quality 100.0 %
Test CRC 7520A659
Copy CRC 7520A659
Accurately ripped (confidence 3) [620D0B36]
Copy OK

Track 7

Filename C:\Program Files\Exact Audio Copy\Flac\Killing Joke – Killing Joke – 07 – You’ll Never Get To Me.wav

Peak level 99.8 %
Track quality 99.9 %
Test CRC 5949B00C
Copy CRC 5949B00C
Accurately ripped (confidence 3) [8FD11AC0]
Copy OK

Track 8

Filename C:\Program Files\Exact Audio Copy\Flac\Killing Joke – Killing Joke – 08 – Seeing Red.wav

Peak level 99.8 %
Track quality 100.0 %
Test CRC 8D3F428D
Copy CRC 8D3F428D
Accurately ripped (confidence 3) [F353EEAD]
Copy OK

Track 9

Filename C:\Program Files\Exact Audio Copy\Flac\Killing Joke – Killing Joke – 09 – Dark Forces.wav

Pre-gap length 0:00:01.53

Peak level 99.8 %
Track quality 100.0 %
Test CRC 44787937
Copy CRC 44787937
Accurately ripped (confidence 3) [60018F93]
Copy OK

Track 10

Filename C:\Program Files\Exact Audio Copy\Flac\Killing Joke – Killing Joke – 10 – The House That Pain Built.wav

Peak level 100.0 %
Track quality 100.0 %
Test CRC 8CCEB940
Copy CRC 8CCEB940
Accurately ripped (confidence 3) [71A2F9AB]
Copy OK

All tracks accurately ripped

No errors occurred

End of status report

REM DISCID 8D0D180A
REM COMMENT “ExactAudioCopy v0.99pb5”
PERFORMER “Killing Joke”
TITLE “Killing Joke”
FILE “Killing Joke – Killing Joke – 01 – The Death & Resurrection Show.wav” WAVE
TRACK 01 AUDIO
TITLE “The Death & Resurrection Show”
PERFORMER “Killing Joke”
INDEX 01 00:00:00
FILE “Killing Joke – Killing Joke – 02 – Total Invasion.wav” WAVE
TRACK 02 AUDIO
TITLE “Total Invasion”
PERFORMER “Killing Joke”
INDEX 01 00:00:00
FILE “Killing Joke – Killing Joke – 03 – Asteroid.wav” WAVE
TRACK 03 AUDIO
TITLE “Asteroid”
PERFORMER “Killing Joke”
INDEX 01 00:00:00
FILE “Killing Joke – Killing Joke – 04 – Implant.wav” WAVE
TRACK 04 AUDIO
TITLE “Implant”
PERFORMER “Killing Joke”
INDEX 01 00:00:00
FILE “Killing Joke – Killing Joke – 05 – Blood On Your Hands.wav” WAVE
TRACK 05 AUDIO
TITLE “Blood On Your Hands”
PERFORMER “Killing Joke”
INDEX 01 00:00:00
FILE “Killing Joke – Killing Joke – 06 – Loose Cannon.wav” WAVE
TRACK 06 AUDIO
TITLE “Loose Cannon”
PERFORMER “Killing Joke”
INDEX 01 00:00:00
FILE “Killing Joke – Killing Joke – 07 – You’ll Never Get To Me.wav” WAVE
TRACK 07 AUDIO
TITLE “You’ll Never Get To Me”
PERFORMER “Killing Joke”
INDEX 01 00:00:00
FILE “Killing Joke – Killing Joke – 08 – Seeing Red.wav” WAVE
TRACK 08 AUDIO
TITLE “Seeing Red”
PERFORMER “Killing Joke”
INDEX 01 00:00:00
TRACK 09 AUDIO
TITLE “Dark Forces”
PERFORMER “Killing Joke”
INDEX 00 05:25:73
FILE “Killing Joke – Killing Joke – 09 – Dark Forces.wav” WAVE
INDEX 01 00:00:00
FILE “Killing Joke – Killing Joke – 10 – The House That Pain Built.wav” WAVE
TRACK 10 AUDIO
TITLE “The House That Pain Built”
PERFORMER “Killing Joke”
INDEX 01 00:00:00


Leave a Reply

Your email address will not be published. Required fields are marked *

Enter the text from the image below
 

This site uses Akismet to reduce spam. Learn how your comment data is processed.