Killing Joke – Killing Joke (Remastered)




[Total: 0    Average: 0/5]

Artist: Killing Joke
Year: 1980/2005
Genre: Punk
Notes: Discogs
Add. Notes: Remastered
Cover incl.: Yes
Encoder: FLAC
Bitrate: ~900 kBit/s (44.1 kHz/16 Bit/s)
Log & Cue incl.: Yes
Size: 389,2 MB
Password: “slam” (without ” “)


All Downloads/Hosters are compatible

Download 1
Share-online.biz
Rapidgator.net
KatFile.com
UploadRar.com
Download 2
Share-online.biz
Rapidgator.net
KatFile.com
UploadRar.com
Download 3
Share-online.biz
Rapidgator.net
KatFile.com
UploadRar.com

Tracklist:

1 - Requiem - 3:45
2 - Wardance - 3:47
3 - Tomorrow's World - 5:30
4 - Bloodsport - 4:47
5 - The Wait - 3:42
6 - Complications - 3:08
7 - S.O.36 - 6:52
8 - Primitive - 3:39
Bonus Tracks
9 - Change - 4:01
10 - Requiem (Single Version) - 3:47
11 - Change (Dub) - 4:00
12 - Primitive (Rough Mix) - 3:34
13 - Bloodsport (Rough Mix) - 4:50

EAC-Log, CUE-Sheed & NFO:

Click to open spoiler
Exact Audio Copy V0.99 prebeta 4 from 23. January 2008

EAC extraction logfile from 11. January 2009, 19:39

Killing Joke / Killing Joke (Remastered with Bonus Tracks)

Used drive : MATSHITADVD-R UJ-857E Adapter: 0 ID: 0

Read mode : Secure
Utilize accurate stream : Yes
Defeat audio cache : Yes
Make use of C2 pointers : No

Read offset correction : 102
Overread into Lead-In and Lead-Out : No
Fill up missing offset samples with silence : Yes
Delete leading and trailing silent blocks : No
Null samples used in CRC calculations : Yes
Used interface : Native Win32 interface for Win NT & 2000
Gap handling : Appended to previous track

Used output format : User Defined Encoder
Selected bitrate : 1024 kBit/s
Quality : High
Add ID3 tag : No
Command line compressor : C:\Program Files\Exact Audio Copy\FLAC\FLAC.EXE
Additional command line options : -V -8 -T “artist=%a” -T “title=%t” -T “album=%g” -T “date=%y” -T “tracknumber=%n” -T “genre=%m” %s

TOC of the extracted CD

Track | Start | Length | Start sector | End sector
———————————————————
1 | 0:00.00 | 3:45.35 | 0 | 16909
2 | 3:45.35 | 3:47.61 | 16910 | 33995
3 | 7:33.21 | 5:30.48 | 33996 | 58793
4 | 13:03.69 | 4:47.24 | 58794 | 80342
5 | 17:51.18 | 3:42.62 | 80343 | 97054
6 | 21:34.05 | 3:08.70 | 97055 | 111224
7 | 24:43.00 | 6:52.38 | 111225 | 142162
8 | 31:35.38 | 3:39.06 | 142163 | 158593
9 | 35:14.44 | 4:01.10 | 158594 | 176678
10 | 39:15.54 | 3:47.39 | 176679 | 193742
11 | 43:03.18 | 4:00.15 | 193743 | 211757
12 | 47:03.33 | 3:34.46 | 211758 | 227853
13 | 50:38.04 | 4:50.67 | 227854 | 249670

Track 1

Filename C:\EAC\01 – Requiem.wav

Pre-gap length 0:00:02.00

Peak level 99.0 %
Track quality 99.9 %
Test CRC 345ADC24
Copy CRC 345ADC24
Accurately ripped (confidence 15) [93B5DDE0]
Copy OK

Track 2

Filename C:\EAC\02 – Wardance.wav

Peak level 98.8 %
Track quality 99.9 %
Test CRC 1B953BDD
Copy CRC 1B953BDD
Accurately ripped (confidence 14) [967D4732]
Copy OK

Track 3

Filename C:\EAC\03 – Tomorrow’s World.wav

Pre-gap length 0:00:01.13

Peak level 99.0 %
Track quality 100.0 %
Test CRC FA09C281
Copy CRC FA09C281
Accurately ripped (confidence 14) [01D7A950]
Copy OK

Track 4

Filename C:\EAC\04 – Bloodsport.wav

Pre-gap length 0:00:01.51

Peak level 99.4 %
Track quality 100.0 %
Test CRC D5DACFF7
Copy CRC D5DACFF7
Accurately ripped (confidence 14) [43B472EC]
Copy OK

Track 5

Filename C:\EAC\05 – The Wait.wav

Pre-gap length 0:00:02.00

Peak level 98.7 %
Track quality 99.9 %
Test CRC 56445ABD
Copy CRC 56445ABD
Accurately ripped (confidence 13) [6788AC01]
Copy OK

Track 6

Filename C:\EAC\06 – Complications.wav

Pre-gap length 0:00:00.37

Peak level 99.2 %
Track quality 99.9 %
Test CRC 381DF4AC
Copy CRC 381DF4AC
Accurately ripped (confidence 13) [58CB410F]
Copy OK

Track 7

Filename C:\EAC\07 – S.O.36.wav

Pre-gap length 0:00:01.19

Peak level 98.9 %
Track quality 100.0 %
Test CRC AE637A59
Copy CRC AE637A59
Accurately ripped (confidence 13) [D77FF141]
Copy OK

Track 8

Filename C:\EAC\08 – Primitive.wav

Peak level 99.0 %
Track quality 100.0 %
Test CRC 3B9E02F1
Copy CRC 3B9E02F1
Accurately ripped (confidence 13) [40DEA40E]
Copy OK

Track 9

Filename C:\EAC\09 – Change.wav

Pre-gap length 0:00:02.48

Peak level 93.3 %
Track quality 100.0 %
Test CRC CADFC627
Copy CRC CADFC627
Accurately ripped (confidence 12) [57FE5CBA]
Copy OK

Track 10

Filename C:\EAC\10 – Requiem (Single Version).wav

Pre-gap length 0:00:00.61

Peak level 92.9 %
Track quality 100.0 %
Test CRC A318F788
Copy CRC A318F788
Accurately ripped (confidence 12) [8C471ABD]
Copy OK

Track 11

Filename C:\EAC\11 – Change (Dub).wav

Pre-gap length 0:00:01.18

Peak level 93.2 %
Track quality 100.0 %
Test CRC 37FE4C83
Copy CRC 37FE4C83
Accurately ripped (confidence 12) [F5597583]
Copy OK

Track 12

Filename C:\EAC\12 – Primitive (Rough Mix).wav

Pre-gap length 0:00:02.03

Peak level 93.1 %
Track quality 100.0 %
Test CRC 36F6839F
Copy CRC 36F6839F
Accurately ripped (confidence 11) [02CBEC00]
Copy OK

Track 13

Filename C:\EAC\13 – Bloodsport (Rough Mix).wav

Peak level 99.0 %
Track quality 99.9 %
Test CRC 5F47063D
Copy CRC 5F47063D
Accurately ripped (confidence 12) [C60E0B60]
Copy OK

All tracks accurately ripped

No errors occurred

End of status report

REM GENRE Post-Punk
REM DATE 1980
REM DISCID BE0D000D
REM COMMENT “ExactAudioCopy v0.99pb4”
PERFORMER “Killing Joke”
TITLE “Killing Joke (Remastered with Bonus Tracks)”
FILE “01 – Requiem.wav” WAVE
TRACK 01 AUDIO
TITLE “Requiem”
PERFORMER “Killing Joke”
INDEX 01 00:00:00
FILE “02 – Wardance.wav” WAVE
TRACK 02 AUDIO
TITLE “Wardance”
PERFORMER “Killing Joke”
INDEX 01 00:00:00
TRACK 03 AUDIO
TITLE “Tomorrow’s World”
PERFORMER “Killing Joke”
INDEX 00 03:46:48
FILE “03 – Tomorrow’s World.wav” WAVE
INDEX 01 00:00:00
TRACK 04 AUDIO
TITLE “Bloodsport”
PERFORMER “Killing Joke”
INDEX 00 05:28:72
FILE “04 – Bloodsport.wav” WAVE
INDEX 01 00:00:00
TRACK 05 AUDIO
TITLE “The Wait”
PERFORMER “Killing Joke”
INDEX 00 04:45:24
FILE “05 – The Wait.wav” WAVE
INDEX 01 00:00:00
TRACK 06 AUDIO
TITLE “Complications”
PERFORMER “Killing Joke”
INDEX 00 03:42:25
FILE “06 – Complications.wav” WAVE
INDEX 01 00:00:00
TRACK 07 AUDIO
TITLE “S.O.36”
PERFORMER “Killing Joke”
INDEX 00 03:07:51
FILE “07 – S.O.36.wav” WAVE
INDEX 01 00:00:00
FILE “08 – Primitive.wav” WAVE
TRACK 08 AUDIO
TITLE “Primitive”
PERFORMER “Killing Joke”
INDEX 01 00:00:00
TRACK 09 AUDIO
TITLE “Change”
PERFORMER “Killing Joke”
INDEX 00 03:36:33
FILE “09 – Change.wav” WAVE
INDEX 01 00:00:00
TRACK 10 AUDIO
TITLE “Requiem (Single Version)”
PERFORMER “Killing Joke”
INDEX 00 04:00:24
FILE “10 – Requiem (Single Version).wav” WAVE
INDEX 01 00:00:00
TRACK 11 AUDIO
TITLE “Change (Dub)”
PERFORMER “Killing Joke”
INDEX 00 03:46:21
FILE “11 – Change (Dub).wav” WAVE
INDEX 01 00:00:00
TRACK 12 AUDIO
TITLE “Primitive (Rough Mix)”
PERFORMER “Killing Joke”
INDEX 00 03:58:12
FILE “12 – Primitive (Rough Mix).wav” WAVE
INDEX 01 00:00:00
FILE “13 – Bloodsport (Rough Mix).wav” WAVE
TRACK 13 AUDIO
TITLE “Bloodsport (Rough Mix)”
PERFORMER “Killing Joke”
INDEX 01 00:00:00


Spread the Download

Leave a Reply

Your email address will not be published. Required fields are marked *

Enter the text from the image below
 

This site uses Akismet to reduce spam. Learn how your comment data is processed.