Killing Joke – Hosannas From The Basements Of Hell




[Total: 0    Average: 0/5]

Artist: Killing Joke
Year: 2006
Genre: Metal
Notes: Discogs
Add. Notes:
Cover incl.: Yes
Encoder: FLAC
Bitrate: ~1000 kBit/s (44.1 kHz/16 Bit/s)
Log & Cue incl.: Yes
Size: 463,2 MB
Password: “slam” (without ” “)


All Downloads/Hosters are compatible

Download 1
Share-online.biz
KatFile.com
Rapidgator.net
Download 2
Share-online.biz
KatFile.com
Rapidgator.net

Tracklist:

1 - This Tribal Antidote - 4:14
2 - Hosannas From The Basements Of Hell - 5:52
3 - Invocation - 7:54
4 - Implosion - 6:41
5 - Majestic - 5:40
6 - Walking With Gods - 8:36
7 - The Lightbringer - 9:38
8 - Judas Goat - 6:21
9 - Gratitude - 7:04

EAC-Log, CUE-Sheed & NFO:

Click to open spoiler
EAC extraction logfile from 10. December 2006, 13:17 for CD
Killing Joke / Hosannas From the Basements of HELL

Used drive : LITE-ON DVDRW SOHW-812S Adapter: 1 ID: 1
Read mode : Secure with NO C2, accurate stream, disable cache
Read offset correction : 12
Overread into Lead-In and Lead-Out : No

Used output format : C:\Program Files\flac\flac.exe (User Defined Encoder)
192 kBit/s
Additional command line options : -T “artist=%a” -T “title=%t” -T “album=%g” -T “date=%y” -T “tracknumber=%n” -T “genre=%m” %s

Other options :
Fill up missing offset samples with silence : Yes
Delete leading and trailing silent blocks : No
Native Win32 interface for Win NT & 2000

Track 1
Filename h:\audio1\music\killing joke\hosannas from the basements of hell\01-Killing Joke-This Tribal Antidote.wav

Pre-gap length 0:00:02.00

Peak level 98.8 %
Track quality 100.0 %
Test CRC 82840603
Copy CRC 82840603
Copy OK

Track 2
Filename h:\audio1\music\killing joke\hosannas from the basements of hell\02-Killing Joke-Hosannas from The Basements of Hell.wav

Peak level 98.8 %
Track quality 100.0 %
Test CRC C2B6B147
Copy CRC C2B6B147
Copy OK

Track 3
Filename h:\audio1\music\killing joke\hosannas from the basements of hell\03-Killing Joke-Invocation.wav

Peak level 98.8 %
Track quality 100.0 %
Test CRC 9F49D1A3
Copy CRC 9F49D1A3
Copy OK

Track 4
Filename h:\audio1\music\killing joke\hosannas from the basements of hell\04-Killing Joke-Implosion.wav

Peak level 98.8 %
Track quality 100.0 %
Test CRC FE19F147
Copy CRC FE19F147
Copy OK

Track 5
Filename h:\audio1\music\killing joke\hosannas from the basements of hell\05-Killing Joke-Majestic.wav

Peak level 98.8 %
Track quality 100.0 %
Test CRC 08EF033B
Copy CRC 08EF033B
Copy OK

Track 6
Filename h:\audio1\music\killing joke\hosannas from the basements of hell\06-Killing Joke-Walking With Gods.wav

Peak level 98.8 %
Track quality 99.9 %
Test CRC FD136B19
Copy CRC FD136B19
Copy OK

Track 7
Filename h:\audio1\music\killing joke\hosannas from the basements of hell\07-Killing Joke-Lightbringer.wav

Peak level 98.8 %
Track quality 100.0 %
Test CRC 95130D6A
Copy CRC 95130D6A
Copy OK

Track 8
Filename h:\audio1\music\killing joke\hosannas from the basements of hell\08-Killing Joke-Judas Goat.wav

Peak level 98.8 %
Track quality 100.0 %
Test CRC E340D72C
Copy CRC E340D72C
Copy OK

Track 9
Filename h:\audio1\music\killing joke\hosannas from the basements of hell\09-Killing Joke-Gratitude.wav

Peak level 98.8 %
Track quality 100.0 %
Test CRC 9A1603F7
Copy CRC 9A1603F7
Copy OK

No errors occured

End of status report

REM GENRE Punk
REM DATE 2006
REM DISCID 6E0E8C09
REM COMMENT “ExactAudioCopy v0.95b3”
PERFORMER “Killing Joke”
TITLE “Hosannas From the Basements of HELL”
FILE “01-Killing Joke-This Tribal Antidote.wav” WAVE
TRACK 01 AUDIO
TITLE “This Tribal Antidote”
PERFORMER “Killing Joke”
INDEX 01 00:00:00
FILE “02-Killing Joke-Hosannas from The Basements of Hell.wav” WAVE
TRACK 02 AUDIO
TITLE “Hosannas from The Basements of Hell”
PERFORMER “Killing Joke”
INDEX 01 00:00:00
FILE “03-Killing Joke-Invocation.wav” WAVE
TRACK 03 AUDIO
TITLE “Invocation”
PERFORMER “Killing Joke”
INDEX 01 00:00:00
FILE “04-Killing Joke-Implosion.wav” WAVE
TRACK 04 AUDIO
TITLE “Implosion”
PERFORMER “Killing Joke”
INDEX 01 00:00:00
FILE “05-Killing Joke-Majestic.wav” WAVE
TRACK 05 AUDIO
TITLE “Majestic”
PERFORMER “Killing Joke”
INDEX 01 00:00:00
FILE “06-Killing Joke-Walking With Gods.wav” WAVE
TRACK 06 AUDIO
TITLE “Walking With Gods”
PERFORMER “Killing Joke”
INDEX 01 00:00:00
FILE “07-Killing Joke-Lightbringer.wav” WAVE
TRACK 07 AUDIO
TITLE “Lightbringer”
PERFORMER “Killing Joke”
INDEX 01 00:00:00
FILE “08-Killing Joke-Judas Goat.wav” WAVE
TRACK 08 AUDIO
TITLE “Judas Goat”
PERFORMER “Killing Joke”
INDEX 01 00:00:00
FILE “09-Killing Joke-Gratitude.wav” WAVE
TRACK 09 AUDIO
TITLE “Gratitude”
PERFORMER “Killing Joke”
INDEX 01 00:00:00


Spread the Download

Leave a Reply

Your email address will not be published. Required fields are marked *

Enter the text from the image below
 

This site uses Akismet to reduce spam. Learn how your comment data is processed.