Killing Joke – Ha! – Killing Joke Live (Remastered)




Artist: Killing Joke
Year: 1982/2005
Genre: Rock
Notes: Discogs
Add. Notes: Remastered
Cover incl.: Yes
Encoder: FLAC
Bitrate: ~900 kBit/s (44.1 kHz/16 Bit/s)
Log & Cue incl.: Yes
Size: 260,81 MB
Password: “slam” (without ” “)


All Downloads/Hosters are compatible

Download 1
Turbobit.net
Rapidgator.net
UploadEver.com
KatFile.com
UsersDrive.com
Download 2
Turbobit.net
Rapidgator.net
UploadEver.com
KatFile.com
UsersDrive.com
Download 3
Turbobit.net
Rapidgator.net
UploadEver.com
KatFile.com
UsersDrive.com

Tracklist:

1 - Pssyche - 4:47
2 - Sun Goes Down - 3:53
3 - The Pandys Are Coming - 3:54
4 - Take Take Take - 4:56
5 - Unspeakable - 5:19
6 - Wardance - 3:46
Bonus Tracks:
7 - Sun Goes Down - 4:18
8 - Birds Of A Feather - 3:45
9 - Flock The B Side - 3:46

EAC-Log, CUE-Sheed & NFO:

Click to open spoiler
Exact Audio Copy V0.99 prebeta 5 from 4. May 2009

EAC extraction logfile from 13. August 2010, 13:53

Killing Joke / ”Ha” Killing Joke Live

Used drive : HL-DT-STDVD-RAM GH22NP20 Adapter: 0 ID: 0

Read mode : Secure
Utilize accurate stream : Yes
Defeat audio cache : No
Make use of C2 pointers : No

Read offset correction : 102
Overread into Lead-In and Lead-Out : No
Fill up missing offset samples with silence : Yes
Delete leading and trailing silent blocks : No
Null samples used in CRC calculations : No
Used interface : Native Win32 interface for Win NT & 2000

Used output format : Internal WAV Routines
Sample format : 44.100 Hz; 16 Bit; Stereo

TOC of the extracted CD

Track | Start | Length | Start sector | End sector
———————————————————
1 | 0:00.00 | 4:47.43 | 0 | 21567
2 | 4:47.43 | 3:53.69 | 21568 | 39111
3 | 8:41.37 | 3:54.15 | 39112 | 56676
4 | 12:35.52 | 4:56.19 | 56677 | 78895
5 | 17:31.71 | 5:19.05 | 78896 | 102825
6 | 22:51.01 | 3:46.12 | 102826 | 119787
7 | 26:37.13 | 4:18.38 | 119788 | 139175
8 | 30:55.51 | 3:45.59 | 139176 | 156109
9 | 34:41.35 | 3:46.67 | 156110 | 173126

Range status and errors

Selected range

Filename C:\Documents and Settings\Owner.WinXP\My Documents\WAVS\”Ha” Killing Joke Live\Killing Joke – ”Ha” Killing Joke Live.wav

Peak level 99.3 %
Range quality 100.0 %
Copy CRC 1A3522AE
Copy OK

No errors occurred

AccurateRip summary

Track 1 accurately ripped (confidence 5) [41E58B44]
Track 2 accurately ripped (confidence 5) [36BAE337]
Track 3 accurately ripped (confidence 5) [E9F18F07]
Track 4 accurately ripped (confidence 5) [03E4025A]
Track 5 accurately ripped (confidence 5) [9E495EFE]
Track 6 accurately ripped (confidence 5) [AFCEC416]
Track 7 accurately ripped (confidence 5) [E7547B3E]
Track 8 accurately ripped (confidence 4) [8E075C0B]
Track 9 accurately ripped (confidence 4) [4556F2FF]

All tracks accurately ripped

End of status report

REM GENRE Alternative
REM DATE 1982
REM DISCID 83090409
REM COMMENT “ExactAudioCopy v0.99pb5”
PERFORMER “Killing Joke”
TITLE “”Ha” Killing Joke Live”
FILE “Killing Joke – ”Ha” Killing Joke Live.wav” WAVE
TRACK 01 AUDIO
TITLE “Pssyche”
PERFORMER “Killing Joke”
INDEX 01 00:00:00
TRACK 02 AUDIO
TITLE “Sun Goes Down”
PERFORMER “Killing Joke”
INDEX 01 04:47:43
TRACK 03 AUDIO
TITLE “The Pandys Are Coming”
PERFORMER “Killing Joke”
INDEX 01 08:41:37
TRACK 04 AUDIO
TITLE “Take Take Take”
PERFORMER “Killing Joke”
INDEX 01 12:35:52
TRACK 05 AUDIO
TITLE “Unspeakable”
PERFORMER “Killing Joke”
INDEX 01 17:31:71
TRACK 06 AUDIO
TITLE “Wardance”
PERFORMER “Killing Joke”
INDEX 01 22:51:01
TRACK 07 AUDIO
TITLE “Sun Goes Down [Bonus Track]”
PERFORMER “Killing Joke”
INDEX 00 26:27:60
INDEX 01 26:37:13
TRACK 08 AUDIO
TITLE “Birds Of A Feather [Bonus Track]”
PERFORMER “Killing Joke”
INDEX 00 30:54:12
INDEX 01 30:55:51
TRACK 09 AUDIO
TITLE “Flock The B Side [Bonus Track]”
PERFORMER “Killing Joke”
INDEX 00 34:40:03
INDEX 01 34:41:35


Leave a Reply

Your email address will not be published. Required fields are marked *

This site uses Akismet to reduce spam. Learn how your comment data is processed.