Killing Joke – Fire Dances




Artist: Killing Joke
Year: 1983/2007
Genre: Punk
Notes: Discogs
Add. Notes:
Cover incl.: Yes
Encoder: FLAC
Bitrate: ~900 kBit/s (44.1 kHz/16 Bit/s)
Log & Cue incl.: Yes
Size: 489,05 MB
Password: “slam” (without ” “)


All Downloads/Hosters are compatible

Download 1
Turbobit.net
NitroFlare.com
KatFile.com
Rapidgator.net
Download 2
Turbobit.net
NitroFlare.com
KatFile.com
Rapidgator.net

Tracklist:

1 - The Gathering - 3:12
2 - Fun & Games - 4:06
3 - Rejuvenation - 4:01
4 - Frenzy - 3:47
5 - Harlequin - 3:57
6 - Feast Of Blaze - 3:33
7 - Song & Dance - 5:11
8 - Dominator - 4:28
9 - Let's All Go - 3:19
10 - Lust Almighty - 3:57
Bonus Tracks
11 - Me Or You - 3:13
12 - Wilful Days - 5:03
13 - Dominator (Version) - 5:34
14 - The Gathering (Original Alt. Version) - 3:27
15 - Dominator (John Peel Session - 12/7/83) - 5:30
16 - Frenzy (John Peel Session - 12/7/83) - 3:39
17 - Wilful Days (John Peel Session - 12/7/83) - 5:58
18 - Harlequin (John Peel Session - 12/7/83) - 3:54

EAC-Log, CUE-Sheed & NFO:

Click to open spoiler
Exact Audio Copy V0.99 prebeta 4 from 23. January 2008

EAC extraction logfile from 28. February 2009, 10:01

Killing Joke / Fire Dances

Used drive : HL-DT-STDVD-RW GSA-H60L Adapter: 3 ID: 0

Read mode : Secure
Utilize accurate stream : Yes
Defeat audio cache : Yes
Make use of C2 pointers : No

Read offset correction : 667
Overread into Lead-In and Lead-Out : No
Fill up missing offset samples with silence : Yes
Delete leading and trailing silent blocks : No
Null samples used in CRC calculations : Yes
Used interface : Native Win32 interface for Win NT & 2000
Gap handling : Appended to previous track

Used output format : User Defined Encoder
Selected bitrate : 192 kBit/s
Quality : High
Add ID3 tag : No
Command line compressor : C:\Program Files\Exact Audio Copy\Flac\flac.exe
Additional command line options : -8 -A tukey(0.25) -A gauss(0.1875) -b 4096 -V -T “artist=%a” -T “title=%t” -T “album=%g” -T “date=%y” -T “tracknumber=%n” -T “genre=%m” %s –sector-align

TOC of the extracted CD

Track | Start | Length | Start sector | End sector
———————————————————
1 | 0:00.00 | 3:12.11 | 0 | 14410
2 | 3:12.11 | 4:06.01 | 14411 | 32861
3 | 7:18.12 | 4:01.02 | 32862 | 50938
4 | 11:19.14 | 3:47.22 | 50939 | 67985
5 | 15:06.36 | 3:57.12 | 67986 | 85772
6 | 19:03.48 | 3:33.59 | 85773 | 101806
7 | 22:37.32 | 5:11.63 | 101807 | 125194
8 | 27:49.20 | 4:28.26 | 125195 | 145320
9 | 32:17.46 | 3:19.70 | 145321 | 160315
10 | 35:37.41 | 3:57.17 | 160316 | 178107
11 | 39:34.58 | 3:13.14 | 178108 | 192596
12 | 42:47.72 | 5:03.01 | 192597 | 215322
13 | 47:50.73 | 5:34.46 | 215323 | 240418
14 | 53:25.44 | 3:27.37 | 240419 | 255980
15 | 56:53.06 | 5:30.13 | 255981 | 280743
16 | 62:23.19 | 3:39.12 | 280744 | 297180
17 | 66:02.31 | 5:58.42 | 297181 | 324072
18 | 72:00.73 | 3:54.74 | 324073 | 341696

Track 1

Filename J:\Music\Killing Joke\Killing Joke – Fire Dances [Remastered]\01 – Killing Joke – The Gathering.wav

Pre-gap length 0:00:02.00

Peak level 98.8 %
Track quality 100.0 %
Test CRC 7DB0EC45
Copy CRC 7DB0EC45
Accurately ripped (confidence 4) [C1EC1931]
Copy OK

Track 2

Filename J:\Music\Killing Joke\Killing Joke – Fire Dances [Remastered]\02 – Killing Joke – Fun & Games.wav

Peak level 98.6 %
Track quality 100.0 %
Test CRC 23E92C47
Copy CRC 23E92C47
Accurately ripped (confidence 4) [29B33377]
Copy OK

Track 3

Filename J:\Music\Killing Joke\Killing Joke – Fire Dances [Remastered]\03 – Killing Joke – Rejuvenation.wav

Peak level 98.8 %
Track quality 100.0 %
Test CRC D73E2219
Copy CRC D73E2219
Accurately ripped (confidence 4) [E3D2532D]
Copy OK

Track 4

Filename J:\Music\Killing Joke\Killing Joke – Fire Dances [Remastered]\04 – Killing Joke – Frenzy.wav

Pre-gap length 0:00:00.36

Peak level 98.6 %
Track quality 100.0 %
Test CRC D4AF64B6
Copy CRC D4AF64B6
Accurately ripped (confidence 4) [24D83491]
Copy OK

Track 5

Filename J:\Music\Killing Joke\Killing Joke – Fire Dances [Remastered]\05 – Killing Joke – Harlequin.wav

Peak level 98.7 %
Track quality 100.0 %
Test CRC FF6B2E6F
Copy CRC FF6B2E6F
Accurately ripped (confidence 4) [C76122DC]
Copy OK

Track 6

Filename J:\Music\Killing Joke\Killing Joke – Fire Dances [Remastered]\06 – Killing Joke – Feast of Blaze.wav

Pre-gap length 0:00:00.28

Peak level 98.6 %
Track quality 100.0 %
Test CRC 2D42F337
Copy CRC 2D42F337
Accurately ripped (confidence 4) [093F03A0]
Copy OK

Track 7

Filename J:\Music\Killing Joke\Killing Joke – Fire Dances [Remastered]\07 – Killing Joke – Song & Dance.wav

Peak level 98.7 %
Track quality 100.0 %
Test CRC 7318AB07
Copy CRC 7318AB07
Accurately ripped (confidence 4) [BCD1E0D7]
Copy OK

Track 8

Filename J:\Music\Killing Joke\Killing Joke – Fire Dances [Remastered]\08 – Killing Joke – Dominator.wav

Peak level 98.6 %
Track quality 100.0 %
Test CRC 86A80171
Copy CRC 86A80171
Accurately ripped (confidence 4) [8F165D1D]
Copy OK

Track 9

Filename J:\Music\Killing Joke\Killing Joke – Fire Dances [Remastered]\09 – Killing Joke – Let’s all go.wav

Peak level 98.6 %
Track quality 100.0 %
Test CRC 1E687062
Copy CRC 1E687062
Accurately ripped (confidence 4) [3DF5FEEE]
Copy OK

Track 10

Filename J:\Music\Killing Joke\Killing Joke – Fire Dances [Remastered]\10 – Killing Joke – Lust Almighty.wav

Peak level 98.6 %
Track quality 100.0 %
Test CRC 434D4447
Copy CRC 434D4447
Accurately ripped (confidence 4) [AE95661A]
Copy OK

Track 11

Filename J:\Music\Killing Joke\Killing Joke – Fire Dances [Remastered]\11 – Killing Joke – Bonus- Me or you.wav

Pre-gap length 0:00:08.46

Peak level 98.6 %
Track quality 100.0 %
Test CRC EB163C84
Copy CRC EB163C84
Accurately ripped (confidence 4) [CEFF9280]
Copy OK

Track 12

Filename J:\Music\Killing Joke\Killing Joke – Fire Dances [Remastered]\12 – Killing Joke – Bonus- Wilful Days.wav

Pre-gap length 0:00:01.04

Peak level 98.6 %
Track quality 100.0 %
Test CRC 99343BE1
Copy CRC 99343BE1
Accurately ripped (confidence 4) [95AE4592]
Copy OK

Track 13

Filename J:\Music\Killing Joke\Killing Joke – Fire Dances [Remastered]\13 – Killing Joke – Bonus- Dominator.wav

Pre-gap length 0:00:00.18

Peak level 98.6 %
Track quality 100.0 %
Test CRC 53736827
Copy CRC 53736827
Accurately ripped (confidence 4) [FB8B3A7E]
Copy OK

Track 14

Filename J:\Music\Killing Joke\Killing Joke – Fire Dances [Remastered]\14 – Killing Joke – Bonus- The Gathering.wav

Pre-gap length 0:00:00.18

Peak level 98.6 %
Track quality 100.0 %
Test CRC 6E162CB2
Copy CRC 6E162CB2
Accurately ripped (confidence 4) [925D0587]
Copy OK

Track 15

Filename J:\Music\Killing Joke\Killing Joke – Fire Dances [Remastered]\15 – Killing Joke – Bonus- Dominator (Peel).wav

Peak level 98.8 %
Track quality 100.0 %
Test CRC 7C359DC7
Copy CRC 7C359DC7
Accurately ripped (confidence 4) [14CA6826]
Copy OK

Track 16

Filename J:\Music\Killing Joke\Killing Joke – Fire Dances [Remastered]\16 – Killing Joke – Bonus- Frenzy (Peel).wav

Pre-gap length 0:00:00.52

Peak level 98.6 %
Track quality 99.9 %
Test CRC EFF6E144
Copy CRC EFF6E144
Accurately ripped (confidence 4) [B107242D]
Copy OK

Track 17

Filename J:\Music\Killing Joke\Killing Joke – Fire Dances [Remastered]\17 – Killing Joke – Bonus- Wilful Days (Peel).wav

Pre-gap length 0:00:00.15

Peak level 98.8 %
Track quality 100.0 %
Test CRC 9E12E469
Copy CRC 9E12E469
Accurately ripped (confidence 4) [4D5B7902]
Copy OK

Track 18

Filename J:\Music\Killing Joke\Killing Joke – Fire Dances [Remastered]\18 – Killing Joke – Bonus- Harlequin (Peel).wav

Peak level 98.5 %
Track quality 100.0 %
Test CRC BBD675AE
Copy CRC BBD675AE
Accurately ripped (confidence 4) [4E789BDC]
Copy OK

All tracks accurately ripped

No errors occurred

End of status report

REM GENRE “New Wave”
REM DATE 2008
REM DISCID 1211CB12
REM COMMENT “ExactAudioCopy v0.99pb4”
PERFORMER “Killing Joke”
TITLE “Fire Dances”
FILE “01 – Killing Joke – The Gathering.wav” WAVE
TRACK 01 AUDIO
TITLE “The Gathering”
PERFORMER “Killing Joke”
INDEX 01 00:00:00
FILE “02 – Killing Joke – Fun & Games.wav” WAVE
TRACK 02 AUDIO
TITLE “Fun & Games”
PERFORMER “Killing Joke”
INDEX 01 00:00:00
FILE “03 – Killing Joke – Rejuvenation.wav” WAVE
TRACK 03 AUDIO
TITLE “Rejuvenation”
PERFORMER “Killing Joke”
INDEX 01 00:00:00
TRACK 04 AUDIO
TITLE “Frenzy”
PERFORMER “Killing Joke”
INDEX 00 04:00:41
FILE “04 – Killing Joke – Frenzy.wav” WAVE
INDEX 01 00:00:00
FILE “05 – Killing Joke – Harlequin.wav” WAVE
TRACK 05 AUDIO
TITLE “Harlequin”
PERFORMER “Killing Joke”
INDEX 01 00:00:00
TRACK 06 AUDIO
TITLE “Feast of Blaze”
PERFORMER “Killing Joke”
INDEX 00 03:56:59
FILE “06 – Killing Joke – Feast of Blaze.wav” WAVE
INDEX 01 00:00:00
FILE “07 – Killing Joke – Song & Dance.wav” WAVE
TRACK 07 AUDIO
TITLE “Song & Dance”
PERFORMER “Killing Joke”
INDEX 01 00:00:00
FILE “08 – Killing Joke – Dominator.wav” WAVE
TRACK 08 AUDIO
TITLE “Dominator”
PERFORMER “Killing Joke”
INDEX 01 00:00:00
FILE “09 – Killing Joke – Let’s all go.wav” WAVE
TRACK 09 AUDIO
TITLE “Let’s all go”
PERFORMER “Killing Joke”
INDEX 01 00:00:00
FILE “10 – Killing Joke – Lust Almighty.wav” WAVE
TRACK 10 AUDIO
TITLE “Lust Almighty”
PERFORMER “Killing Joke”
INDEX 01 00:00:00
TRACK 11 AUDIO
TITLE “Bonus: Me or you”
PERFORMER “Killing Joke”
INDEX 00 03:48:46
FILE “11 – Killing Joke – Bonus- Me or you.wav” WAVE
INDEX 01 00:00:00
TRACK 12 AUDIO
TITLE “Bonus: Wilful Days”
PERFORMER “Killing Joke”
INDEX 00 03:12:10
FILE “12 – Killing Joke – Bonus- Wilful Days.wav” WAVE
INDEX 01 00:00:00
TRACK 13 AUDIO
TITLE “Bonus: Dominator”
PERFORMER “Killing Joke”
INDEX 00 05:02:58
FILE “13 – Killing Joke – Bonus- Dominator.wav” WAVE
INDEX 01 00:00:00
TRACK 14 AUDIO
TITLE “Bonus: The Gathering”
PERFORMER “Killing Joke”
INDEX 00 05:34:28
FILE “14 – Killing Joke – Bonus- The Gathering.wav” WAVE
INDEX 01 00:00:00
FILE “15 – Killing Joke – Bonus- Dominator (Peel).wav” WAVE
TRACK 15 AUDIO
TITLE “Bonus: Dominator (Peel)”
PERFORMER “Killing Joke”
INDEX 01 00:00:00
TRACK 16 AUDIO
TITLE “Bonus: Frenzy (Peel)”
PERFORMER “Killing Joke”
INDEX 00 05:29:36
FILE “16 – Killing Joke – Bonus- Frenzy (Peel).wav” WAVE
INDEX 01 00:00:00
TRACK 17 AUDIO
TITLE “Bonus: Wilful Days (Peel)”
PERFORMER “Killing Joke”
INDEX 00 03:38:72
FILE “17 – Killing Joke – Bonus- Wilful Days (Peel).wav” WAVE
INDEX 01 00:00:00
FILE “18 – Killing Joke – Bonus- Harlequin (Peel).wav” WAVE
TRACK 18 AUDIO
TITLE “Bonus: Harlequin (Peel)”
PERFORMER “Killing Joke”
INDEX 01 00:00:00


Leave a Reply

Your email address will not be published. Required fields are marked *

This site uses Akismet to reduce spam. Learn how your comment data is processed.