Killing Joke – Extremities, Dirt And Various Repressed Emotions




Artist: Killing Joke
Year: 2007
Genre: Rock
Notes: Discogs
Add. Notes:
Cover incl.: Yes
Encoder: FLAC
Bitrate: ~1000 kBit/s (44.1 kHz/16 Bit/s)
Log & Cue incl.: Yes
Size: 714,74 MB
Password: “slam” (without ” “)


All Downloads/Hosters are compatible

Download 1
Turbobit.net
Rapidgator.net
KatFile.com
UploadRar.com
Download 2
Turbobit.net
Rapidgator.net
KatFile.com
UploadRar.com

Tracklist:

1-1 - Money Is Not Our God - 5:15
1-2 - Age Of Greed - 7:22
1-3 - The Beautiful Dead - 5:56
1-4 - Extremities - 5:20
1-5 - Intravenous - 7:02
1-6 - Inside The Termite Mound - 7:50
1-7 - Solitude - 4:58
1-8 - North Of The Border - 5:52
1-9 - Slipstream - 7:07
1-10 - Kaliyuga - 2:09
1-11 - Struggle - 6:14

2-1 - The Party (Demo) - 5:10
2-2 - The Fanatic (Demo) - 4:22
2-3 - Solitude (Demo) - 5:10
2-4 - Jubilation (The Beautiful Dead - Demo) - 4:37
2-5 - Age Of Greed (Live) - 12:05

EAC-Log, CUE-Sheed & NFO:

Click to open spoiler
Exact Audio Copy V0.99 prebeta 5 from 4. May 2009

EAC extraction logfile from 14. November 2009, 20:53

Killing Joke / Extremities, Dirt & Various Repressed Emotions (Letv002Lp-1)

Used drive : HL-DT-STDVD-RAM GH22NP20 Adapter: 0 ID: 0

Read mode : Secure
Utilize accurate stream : Yes
Defeat audio cache : Yes
Make use of C2 pointers : No

Read offset correction : 102
Overread into Lead-In and Lead-Out : No
Fill up missing offset samples with silence : Yes
Delete leading and trailing silent blocks : No
Null samples used in CRC calculations : Yes
Used interface : Installed external ASPI interface
Gap handling : Appended to previous track

Used output format : User Defined Encoder
Selected bitrate : 768 kBit/s
Quality : High
Add ID3 tag : No
Command line compressor : C:\Program Files\FLAC\flac.exe
Additional command line options : -6 -V -T “ARTIST=%a” -T “TITLE=%t” -T “ALBUM=%g” -T “DATE=%y” -T “TRACKNUMBER=%n” -T “GENRE=%m” -T “COMMENT=%e” %s -o %d

TOC of the extracted CD

Track | Start | Length | Start sector | End sector
———————————————————
1 | 0:00.00 | 5:15.37 | 0 | 23661
2 | 5:15.37 | 7:22.05 | 23662 | 56816
3 | 12:37.42 | 5:56.29 | 56817 | 83545
4 | 18:33.71 | 5:20.29 | 83546 | 107574
5 | 23:54.25 | 7:02.30 | 107575 | 139254
6 | 30:56.55 | 7:50.09 | 139255 | 174513
7 | 38:46.64 | 4:57.44 | 174514 | 196832
8 | 43:44.33 | 5:52.18 | 196833 | 223250
9 | 49:36.51 | 7:06.43 | 223251 | 255243
10 | 56:43.19 | 2:08.61 | 255244 | 264904
11 | 58:52.05 | 6:14.03 | 264905 | 292957

Track 1

Filename C:\Program Files\Exact Audio Copy\Flac\Killing Joke – Extremities, Dirt & Various Repressed Emotions (Letv002Lp-1) – 01 – Money Is Not Our God.wav

Pre-gap length 0:00:02.00

Peak level 97.7 %
Track quality 100.0 %
Test CRC 60987CA3
Copy CRC 60987CA3
Cannot be verified as accurate (confidence 3) [4C087E1A], AccurateRip returned [8AC44F45]
Copy OK

Track 2

Filename C:\Program Files\Exact Audio Copy\Flac\Killing Joke – Extremities, Dirt & Various Repressed Emotions (Letv002Lp-1) – 02 – Age Of Greed.wav

Peak level 97.7 %
Track quality 100.0 %
Test CRC 4BE9A208
Copy CRC 4BE9A208
Cannot be verified as accurate (confidence 3) [2DFA1397], AccurateRip returned [0D6A4311]
Copy OK

Track 3

Filename C:\Program Files\Exact Audio Copy\Flac\Killing Joke – Extremities, Dirt & Various Repressed Emotions (Letv002Lp-1) – 03 – The Beautiful Dead.wav

Peak level 97.7 %
Track quality 100.0 %
Test CRC 0DB9E276
Copy CRC 0DB9E276
Cannot be verified as accurate (confidence 3) [EB588ABF], AccurateRip returned [427642CF]
Copy OK

Track 4

Filename C:\Program Files\Exact Audio Copy\Flac\Killing Joke – Extremities, Dirt & Various Repressed Emotions (Letv002Lp-1) – 04 – Extremities.wav

Peak level 97.7 %
Track quality 100.0 %
Test CRC BA78C8FF
Copy CRC BA78C8FF
Cannot be verified as accurate (confidence 3) [E9689CD9], AccurateRip returned [B64B8059]
Copy OK

Track 5

Filename C:\Program Files\Exact Audio Copy\Flac\Killing Joke – Extremities, Dirt & Various Repressed Emotions (Letv002Lp-1) – 05 – Intravenous.wav

Peak level 97.7 %
Track quality 99.9 %
Test CRC D4301457
Copy CRC D4301457
Cannot be verified as accurate (confidence 3) [1FC6A1AD], AccurateRip returned [18D7DFE9]
Copy OK

Track 6

Filename C:\Program Files\Exact Audio Copy\Flac\Killing Joke – Extremities, Dirt & Various Repressed Emotions (Letv002Lp-1) – 06 – Inside The Termite Mound.wav

Peak level 97.7 %
Track quality 100.0 %
Test CRC 588BF1BF
Copy CRC 588BF1BF
Cannot be verified as accurate (confidence 3) [C5DA99CA], AccurateRip returned [34E6980F]
Copy OK

Track 7

Filename C:\Program Files\Exact Audio Copy\Flac\Killing Joke – Extremities, Dirt & Various Repressed Emotions (Letv002Lp-1) – 07 – Solitude.wav

Peak level 97.7 %
Track quality 100.0 %
Test CRC 3674D7B6
Copy CRC 3674D7B6
Cannot be verified as accurate (confidence 3) [89A49803], AccurateRip returned [26619A54]
Copy OK

Track 8

Filename C:\Program Files\Exact Audio Copy\Flac\Killing Joke – Extremities, Dirt & Various Repressed Emotions (Letv002Lp-1) – 08 – North Of The Border.wav

Peak level 97.7 %
Track quality 100.0 %
Test CRC 185D8125
Copy CRC 185D8125
Cannot be verified as accurate (confidence 3) [3A667DDA], AccurateRip returned [036BBA1E]
Copy OK

Track 9

Filename C:\Program Files\Exact Audio Copy\Flac\Killing Joke – Extremities, Dirt & Various Repressed Emotions (Letv002Lp-1) – 09 – Slipstream.wav

Peak level 97.7 %
Track quality 100.0 %
Test CRC 99DA041F
Copy CRC 99DA041F
Cannot be verified as accurate (confidence 3) [7C55839C], AccurateRip returned [28918AC7]
Copy OK

Track 10

Filename C:\Program Files\Exact Audio Copy\Flac\Killing Joke – Extremities, Dirt & Various Repressed Emotions (Letv002Lp-1) – 10 – Kaliyuga.wav

Peak level 83.6 %
Track quality 99.9 %
Test CRC 3282148E
Copy CRC 3282148E
Cannot be verified as accurate (confidence 3) [103FBFE2], AccurateRip returned [BF1A0AED]
Copy OK

Track 11

Filename C:\Program Files\Exact Audio Copy\Flac\Killing Joke – Extremities, Dirt & Various Repressed Emotions (Letv002Lp-1) – 11 – Struggle.wav

Peak level 97.7 %
Track quality 100.0 %
Test CRC 1FA69C6D
Copy CRC 1FA69C6D
Cannot be verified as accurate (confidence 3) [0ABB0991], AccurateRip returned [50B3F036]
Copy OK

No tracks could be verified as accurate
You may have a different pressing from the one(s) in the database

No errors occurred

End of status report

Exact Audio Copy V0.99 prebeta 5 from 4. May 2009

EAC extraction logfile from 17. November 2009, 22:07

Killing Joke / Extremities Bonus

Used drive : HL-DT-STDVD-RAM GH22NP20 Adapter: 0 ID: 0

Read mode : Secure
Utilize accurate stream : Yes
Defeat audio cache : Yes
Make use of C2 pointers : No

Read offset correction : 102
Overread into Lead-In and Lead-Out : No
Fill up missing offset samples with silence : Yes
Delete leading and trailing silent blocks : No
Null samples used in CRC calculations : Yes
Used interface : Installed external ASPI interface
Gap handling : Appended to previous track

Used output format : User Defined Encoder
Selected bitrate : 768 kBit/s
Quality : High
Add ID3 tag : No
Command line compressor : C:\Program Files\FLAC\flac.exe
Additional command line options : -6 -V -T “ARTIST=%a” -T “TITLE=%t” -T “ALBUM=%g” -T “DATE=%y” -T “TRACKNUMBER=%n” -T “GENRE=%m” -T “COMMENT=%e” %s -o %d

TOC of the extracted CD

Track | Start | Length | Start sector | End sector
———————————————————
1 | 0:00.00 | 5:09.52 | 0 | 23226
2 | 5:09.52 | 4:22.11 | 23227 | 42887
3 | 9:31.63 | 5:09.46 | 42888 | 66108
4 | 14:41.34 | 4:37.00 | 66109 | 86883
5 | 19:18.34 | 12:05.24 | 86884 | 141282
6 | 33:55.58 | 23:01.66 | 152683 | 256323

Track 1

Filename C:\Program Files\Exact Audio Copy\Flac\Killing Joke – Extremities Bonus – 01 – The Party.wav

Pre-gap length 0:00:02.00

Peak level 97.7 %
Track quality 100.0 %
Test CRC 12DB0E3D
Copy CRC 12DB0E3D
Accurately ripped (confidence 1) [92E12ED9]
Copy OK

Track 2

Filename C:\Program Files\Exact Audio Copy\Flac\Killing Joke – Extremities Bonus – 02 – The Fanatic.wav

Peak level 97.7 %
Track quality 100.0 %
Test CRC E54900BF
Copy CRC E54900BF
Accurately ripped (confidence 1) [1F1737AC]
Copy OK

Track 3

Filename C:\Program Files\Exact Audio Copy\Flac\Killing Joke – Extremities Bonus – 03 – Solitude.wav

Peak level 97.7 %
Track quality 100.0 %
Test CRC 6407CB3B
Copy CRC 6407CB3B
Accurately ripped (confidence 1) [7D6B5A03]
Copy OK

Track 4

Filename C:\Program Files\Exact Audio Copy\Flac\Killing Joke – Extremities Bonus – 04 – Jubiliation.wav

Peak level 97.7 %
Track quality 100.0 %
Test CRC 71BC1BBF
Copy CRC 71BC1BBF
Accurately ripped (confidence 1) [675DBAE1]
Copy OK

Track 5

Filename C:\Program Files\Exact Audio Copy\Flac\Killing Joke – Extremities Bonus – 05 – Age of Greed (Live).wav

Peak level 97.7 %
Track quality 100.0 %
Test CRC 4308EA21
Copy CRC 4308EA21
Accurately ripped (confidence 1) [23E76C1B]
Copy OK

All tracks accurately ripped

No errors occurred

End of status report

REM GENRE “New Wave”
REM DATE 2007
REM DISCID A20F420B
REM COMMENT “ExactAudioCopy v0.99pb5”
PERFORMER “Killing Joke”
TITLE “Extremities, Dirt & Various Repressed Emotions (Letv002Lp-1)”
FILE “Killing Joke – Extremities, Dirt & Various Repressed Emotions (Letv002Lp-1) – 01 – Money Is Not Our God.wav” WAVE
TRACK 01 AUDIO
TITLE “Money Is Not Our God”
PERFORMER “Killing Joke”
INDEX 01 00:00:00
FILE “Killing Joke – Extremities, Dirt & Various Repressed Emotions (Letv002Lp-1) – 02 – Age Of Greed.wav” WAVE
TRACK 02 AUDIO
TITLE “Age Of Greed”
PERFORMER “Killing Joke”
INDEX 01 00:00:00
FILE “Killing Joke – Extremities, Dirt & Various Repressed Emotions (Letv002Lp-1) – 03 – The Beautiful Dead.wav” WAVE
TRACK 03 AUDIO
TITLE “The Beautiful Dead”
PERFORMER “Killing Joke”
INDEX 01 00:00:00
FILE “Killing Joke – Extremities, Dirt & Various Repressed Emotions (Letv002Lp-1) – 04 – Extremities.wav” WAVE
TRACK 04 AUDIO
TITLE “Extremities”
PERFORMER “Killing Joke”
INDEX 01 00:00:00
FILE “Killing Joke – Extremities, Dirt & Various Repressed Emotions (Letv002Lp-1) – 05 – Intravenous.wav” WAVE
TRACK 05 AUDIO
TITLE “Intravenous”
PERFORMER “Killing Joke”
INDEX 01 00:00:00
FILE “Killing Joke – Extremities, Dirt & Various Repressed Emotions (Letv002Lp-1) – 06 – Inside The Termite Mound.wav” WAVE
TRACK 06 AUDIO
TITLE “Inside The Termite Mound”
PERFORMER “Killing Joke”
INDEX 01 00:00:00
FILE “Killing Joke – Extremities, Dirt & Various Repressed Emotions (Letv002Lp-1) – 07 – Solitude.wav” WAVE
TRACK 07 AUDIO
TITLE “Solitude”
PERFORMER “Killing Joke”
INDEX 01 00:00:00
FILE “Killing Joke – Extremities, Dirt & Various Repressed Emotions (Letv002Lp-1) – 08 – North Of The Border.wav” WAVE
TRACK 08 AUDIO
TITLE “North Of The Border”
PERFORMER “Killing Joke”
INDEX 01 00:00:00
FILE “Killing Joke – Extremities, Dirt & Various Repressed Emotions (Letv002Lp-1) – 09 – Slipstream.wav” WAVE
TRACK 09 AUDIO
TITLE “Slipstream”
PERFORMER “Killing Joke”
INDEX 01 00:00:00
FILE “Killing Joke – Extremities, Dirt & Various Repressed Emotions (Letv002Lp-1) – 10 – Kaliyuga.wav” WAVE
TRACK 10 AUDIO
TITLE “Kaliyuga”
PERFORMER “Killing Joke”
INDEX 01 00:00:00
FILE “Killing Joke – Extremities, Dirt & Various Repressed Emotions (Letv002Lp-1) – 11 – Struggle.wav” WAVE
TRACK 11 AUDIO
TITLE “Struggle”
PERFORMER “Killing Joke”
INDEX 01 00:00:00

REM DISCID 3D0D5906
REM COMMENT “ExactAudioCopy v0.99pb5”
PERFORMER “Killing Joke”
TITLE “Extremities Bonus”
FILE “Killing Joke – Extremities Bonus – 01 – The Party.wav” WAVE
TRACK 01 AUDIO
TITLE “The Party”
PERFORMER “Killing Joke”
INDEX 01 00:00:00
FILE “Killing Joke – Extremities Bonus – 02 – The Fanatic.wav” WAVE
TRACK 02 AUDIO
TITLE “The Fanatic”
PERFORMER “Killing Joke”
INDEX 01 00:00:00
FILE “Killing Joke – Extremities Bonus – 03 – Solitude.wav” WAVE
TRACK 03 AUDIO
TITLE “Solitude”
PERFORMER “Killing Joke”
INDEX 01 00:00:00
FILE “Killing Joke – Extremities Bonus – 04 – Jubiliation.wav” WAVE
TRACK 04 AUDIO
TITLE “Jubiliation”
PERFORMER “Killing Joke”
INDEX 01 00:00:00
FILE “Killing Joke – Extremities Bonus – 05 – Age of Greed (Live).wav” WAVE
TRACK 05 AUDIO
TITLE “Age of Greed (Live)”
PERFORMER “Killing Joke”
INDEX 01 00:00:00
TRACK 06 MODEx/2xxx
TITLE “Data Track”
PERFORMER “Killing Joke”
INDEX 00 12:05:24


Leave a Reply

Your email address will not be published. Required fields are marked *

This site uses Akismet to reduce spam. Learn how your comment data is processed.