Killing Joke – Democracy




Artist: Killing Joke
Year: 1996
Genre: Rock
Notes: Discogs
Add. Notes:
Cover incl.: Yes
Encoder: FLAC
Bitrate: ~1000 kBit/s (44.1 kHz/16 Bit/s)
Log & Cue incl.: Yes
Size: 389,37 MB
Password: “slam” (without ” “)


All Downloads/Hosters are compatible

Download 1
Turbobit.net
Rapidgator.net
KatFile.com
UploadRar.com
Download 2
Turbobit.net
Rapidgator.net
KatFile.com
UploadRar.com

Tracklist:

1 - Savage Freedom - 4:50
2 - Democracy - 3:40
3 - Prozac People - 6:55
4 - Lanterns - 4:53
5 - Aeon - 8:04
6 - Pilgrimage - 6:30
7 - Intellect - 4:01
8 - Medicine Wheel - 5:18
9 - Absent Friends - 5:40
10 - Another Bloody Election - 4:26

EAC-Log, CUE-Sheed & NFO:

Click to open spoiler
Exact Audio Copy V0.99 prebeta 4 from 23. January 2008

EAC extraction logfile from 26. November 2008, 1:42

Killing Joke / Democracy

Used drive : PHILIPS DVD+-RW DVD8631 Adapter: 0 ID: 0

Read mode : Secure
Utilize accurate stream : Yes
Defeat audio cache : Yes
Make use of C2 pointers : No

Read offset correction : 618
Overread into Lead-In and Lead-Out : No
Fill up missing offset samples with silence : Yes
Delete leading and trailing silent blocks : No
Null samples used in CRC calculations : Yes
Used interface : Installed external ASPI interface
Gap handling : Appended to previous track

Used output format : User Defined Encoder
Selected bitrate : 192 kBit/s
Quality : High
Add ID3 tag : No
Command line compressor : C:\Program Files (x86)\Exact Audio Copy\Flac\flac.exe
Additional command line options : -V -8 -T “artist=%a” -T “title=%t” -T “album=%g” -T “date=%y” -T “tracknumber=%n” -T “genre=%m” %s

TOC of the extracted CD

Track | Start | Length | Start sector | End sector
———————————————————
1 | 0:00.00 | 4:51.10 | 0 | 21834
2 | 4:51.10 | 3:39.60 | 21835 | 38319
3 | 8:30.70 | 6:54.32 | 38320 | 69401
4 | 15:25.27 | 4:53.20 | 69402 | 91396
5 | 20:18.47 | 8:05.40 | 91397 | 127811
6 | 28:24.12 | 6:29.20 | 127812 | 157006
7 | 34:53.32 | 4:00.50 | 157007 | 175056
8 | 38:54.07 | 5:18.05 | 175057 | 198911
9 | 44:12.12 | 5:40.58 | 198912 | 224469
10 | 49:52.70 | 4:26.22 | 224470 | 244441

Track 1

Filename F:\Uploads\What.cd\Killing Joke – Democracy\ 01 – Killing Joke – Savage Freedom.wav

Pre-gap length 0:00:02.00

Peak level 91.1 %
Track quality 100.0 %
Test CRC DE5BC172
Copy CRC DE5BC172
Copy OK

Track 2

Filename F:\Uploads\What.cd\Killing Joke – Democracy\ 02 – Killing Joke – Democracy.wav

Peak level 92.1 %
Track quality 99.9 %
Test CRC C4494AE2
Copy CRC C4494AE2
Copy OK

Track 3

Filename F:\Uploads\What.cd\Killing Joke – Democracy\ 03 – Killing Joke – Prozac People.wav

Peak level 92.1 %
Track quality 99.9 %
Test CRC 6E57E2B9
Copy CRC 6E57E2B9
Copy OK

Track 4

Filename F:\Uploads\What.cd\Killing Joke – Democracy\ 04 – Killing Joke – Lanterns.wav

Peak level 92.1 %
Track quality 100.0 %
Test CRC 0F69D4F9
Copy CRC 0F69D4F9
Copy OK

Track 5

Filename F:\Uploads\What.cd\Killing Joke – Democracy\ 05 – Killing Joke – Aeon.wav

Peak level 91.8 %
Track quality 100.0 %
Test CRC D609CF9B
Copy CRC D609CF9B
Copy OK

Track 6

Filename F:\Uploads\What.cd\Killing Joke – Democracy\ 06 – Killing Joke – Pilgrimage.wav

Peak level 92.1 %
Track quality 100.0 %
Test CRC 9004A26C
Copy CRC 9004A26C
Copy OK

Track 7

Filename F:\Uploads\What.cd\Killing Joke – Democracy\ 07 – Killing Joke – Intellect.wav

Peak level 92.1 %
Track quality 100.0 %
Test CRC 78104D61
Copy CRC 78104D61
Copy OK

Track 8

Filename F:\Uploads\What.cd\Killing Joke – Democracy\ 08 – Killing Joke – Medicine Wheel.wav

Peak level 92.0 %
Track quality 100.0 %
Test CRC DEFE4448
Copy CRC DEFE4448
Copy OK

Track 9

Filename F:\Uploads\What.cd\Killing Joke – Democracy\ 09 – Killing Joke – Absent Friends.wav

Pre-gap length 0:00:01.02

Peak level 92.1 %
Track quality 100.0 %
Test CRC ECED1609
Copy CRC ECED1609
Copy OK

Track 10

Filename F:\Uploads\What.cd\Killing Joke – Democracy\ 10 – Killing Joke – Another Bloody Election.wav

Peak level 92.1 %
Track quality 100.0 %
Test CRC 236931F7
Copy CRC 236931F7
Copy OK

No errors occurred

End of status report

REM GENRE Alternative
REM DATE 1996
REM DISCID 840CBB0A
REM COMMENT “ExactAudioCopy v0.99pb4”
PERFORMER “Killing Joke”
TITLE “Democracy”
FILE ” 01 – Killing Joke – Savage Freedom.wav” WAVE
TRACK 01 AUDIO
TITLE “Savage Freedom”
PERFORMER “Killing Joke”
INDEX 01 00:00:00
FILE ” 02 – Killing Joke – Democracy.wav” WAVE
TRACK 02 AUDIO
TITLE “Democracy”
PERFORMER “Killing Joke”
FLAGS DCP
INDEX 01 00:00:00
FILE ” 03 – Killing Joke – Prozac People.wav” WAVE
TRACK 03 AUDIO
TITLE “Prozac People”
PERFORMER “Killing Joke”
FLAGS DCP
INDEX 01 00:00:00
FILE ” 04 – Killing Joke – Lanterns.wav” WAVE
TRACK 04 AUDIO
TITLE “Lanterns”
PERFORMER “Killing Joke”
FLAGS DCP
INDEX 01 00:00:00
FILE ” 05 – Killing Joke – Aeon.wav” WAVE
TRACK 05 AUDIO
TITLE “Aeon”
PERFORMER “Killing Joke”
FLAGS DCP
INDEX 01 00:00:00
FILE ” 06 – Killing Joke – Pilgrimage.wav” WAVE
TRACK 06 AUDIO
TITLE “Pilgrimage”
PERFORMER “Killing Joke”
FLAGS DCP
INDEX 01 00:00:00
FILE ” 07 – Killing Joke – Intellect.wav” WAVE
TRACK 07 AUDIO
TITLE “Intellect”
PERFORMER “Killing Joke”
FLAGS DCP
INDEX 01 00:00:00
FILE ” 08 – Killing Joke – Medicine Wheel.wav” WAVE
TRACK 08 AUDIO
TITLE “Medicine Wheel”
PERFORMER “Killing Joke”
FLAGS DCP
INDEX 01 00:00:00
TRACK 09 AUDIO
TITLE “Absent Friends”
PERFORMER “Killing Joke”
FLAGS DCP
INDEX 00 05:17:03
FILE ” 09 – Killing Joke – Absent Friends.wav” WAVE
INDEX 01 00:00:00
FILE ” 10 – Killing Joke – Another Bloody Election.wav” WAVE
TRACK 10 AUDIO
TITLE “Another Bloody Election”
PERFORMER “Killing Joke”
FLAGS DCP
INDEX 01 00:00:00


Leave a Reply

Your email address will not be published. Required fields are marked *

This site uses Akismet to reduce spam. Learn how your comment data is processed.