Killing Joke – Brighter Than A Thousand Suns




Artist: Killing Joke
Year: 1986
Genre: Rock
Notes: Discogs
Add. Notes:
Cover incl.: Yes
Encoder: FLAC
Bitrate: ~900 kBit/s (44.1 kHz/16 Bit/s)
Log & Cue incl.: Yes
Size: 384,57 MB
Password: “slam” (without ” “)


All Downloads/Hosters are compatible

Download 1
Turbobit.net
Rapidgator.net
UploadByte.com
UploadEver.com
JustUpload.io
Download 2
Turbobit.net
Rapidgator.net
UploadByte.com
UploadEver.com
JustUpload.io
Download 3
Turbobit.net
Rapidgator.net
UploadByte.com
UploadEver.com
JustUpload.io

Tracklist:

1 - Adorations - 4:42
2 - Sanity - 4:45
3 - Chessboards - 5:51
4 - Twilight Of The Mortal - 4:14
5 - Love Of The Masses - 4:40
6 - A Southern Sky - 4:38
7 - Victory - 7:11
8 - Wintergardens - 5:24
9 - Rubicon - 7:03
10 - Goodbye To The Village - 5:26
11 - Exile - 6:38

EAC-Log, CUE-Sheed & NFO:

Click to open spoiler
EAC extraction logfile from 1. June 2006, 21:14 for CD
Killing Joke / Brighter Than A Thousand Suns

Used drive : HL-DT-STDVDRAM GSA-H10A Adapter: 0 ID: 0
Read mode : Secure with NO C2, accurate stream, disable cache
Read offset correction : 667
Overread into Lead-In and Lead-Out : No

Used output format : C:\Program Files\Exact Audio Copy\MAC.exe (Monkey’s Audio Lossless Encoder)
High Lossless Compression

Other options :
Fill up missing offset samples with silence : Yes
Delete leading and trailing silent blocks : No
Installed external ASPI interface

Range status and errors
Selected range
Filename C:\Documents and Settings\M\Plocha\KJ- bright\Killing Joke – Brighter Than A Thousand Suns.wav.wav

Peak level 100.0 %
Range quality 100.0 %
CRC 9B5A1C4E
Copy OK

No errors occured

End of status report

REM GENRE “NewWave Rock”
REM DATE 1986
REM DISCID 8E0E340B
REM COMMENT “ExactAudioCopy v0.95b4”
PERFORMER “Killing Joke”
TITLE “Brighter Than A Thousand Suns”
FILE “Killing Joke – Brighter Than A Thousand Suns.wav” WAVE
TRACK 01 AUDIO
TITLE “Adorations”
PERFORMER “Killing Joke”
INDEX 00 00:00:00
INDEX 01 00:00:32
TRACK 02 AUDIO
TITLE “Sanity”
PERFORMER “Killing Joke”
INDEX 01 04:43:12
TRACK 03 AUDIO
TITLE “Chessboards”
PERFORMER “Killing Joke”
INDEX 01 09:28:32
TRACK 04 AUDIO
TITLE “Twilight of the Mortal”
PERFORMER “Killing Joke”
INDEX 01 15:19:60
TRACK 05 AUDIO
TITLE “Love of the Masses”
PERFORMER “Killing Joke”
INDEX 00 19:31:05
INDEX 01 19:34:05
TRACK 06 AUDIO
TITLE “A Southern Sky”
PERFORMER “Killing Joke”
INDEX 01 24:14:65
TRACK 07 AUDIO
TITLE “Victory”
PERFORMER “Killing Joke”
INDEX 00 28:52:17
INDEX 01 28:53:17
TRACK 08 AUDIO
TITLE “Wintergardens”
PERFORMER “Killing Joke”
INDEX 01 36:04:45
TRACK 09 AUDIO
TITLE “Rubicon”
PERFORMER “Killing Joke”
INDEX 00 41:27:47
INDEX 01 41:28:47
TRACK 10 AUDIO
TITLE “Goodbye to the Village”
PERFORMER “Killing Joke”
INDEX 00 48:30:67
INDEX 01 48:31:67
TRACK 11 AUDIO
TITLE “Exile”
PERFORMER “Killing Joke”
INDEX 01 53:58:22

Leave a Reply

Your email address will not be published. Required fields are marked *

This site uses Akismet to reduce spam. Learn how your comment data is processed.