Killing Joke – Absolute Dissent (Limited Edition)




Artist: Killing Joke
Year: 2010
Genre: Punk
Notes: Discogs
Add. Notes: Limited Edition
Cover incl.: Yes
Encoder: FLAC
Bitrate: ~1100 kBit/s (44.1 kHz/16 Bit/s)
Log & Cue incl.: Yes
Size: 859,75 MB
Password: “slam” (without ” “)


All Downloads/Hosters are compatible

Download 1
Turbobit.net
Rapidgator.net
KatFile.com
UploadRar.com
Download 2
Turbobit.net
Rapidgator.net
KatFile.com
UploadRar.com
Download 3
Turbobit.net
Rapidgator.net
KatFile.com
UploadRar.com

Tracklist:

Absolute Dissent
1-1. Killing Joke 	Absolute Dissent 	6:16
1-2. Killing Joke 	The Great Cull 	5:58
1-3. Killing Joke 	Fresh Fever From The Skies 	3:24
1-4. Killing Joke 	In Excelsis 	4:04
1-5. Killing Joke 	European Super State 	4:42
1-6. Killing Joke 	This World Hell 	5:28
1-7. Killing Joke 	Endgame 	4:41
1-8. Killing Joke 	The Raven King 	6:34
1-9. Killing Joke 	Honour The Fire 	5:51
1-10. Killing Joke 	Depthcharge 	4:17
1-11. Killing Joke 	Here Comes The Singularity 	5:05
1-12. Killing Joke 	Ghosts Of Ladbroke Grove 	6:33

Absolute Respect
2-1. Metallica 	The Wait 	4:53
2-2. Amen (2) 	Europe (BBC Live Version) 	3:58
2-3. Helmet (2) 	Primitive 	4:00
2-4. Econoline Crush 	Pssyche 	5:00
2-5. Dead By April 	Love Like Blood 	3:42
2-6. Killing Joke 	Democracy (NIN Remix) 	7:23
2-7. The Mad Capsule Markets 	Wardance 
	3:30
2-8. Nouvelle Vague 	Pssyche 	4:11
2-9. Fear Factory 	Millennium 	5:25
2-10. Foo Fighters 	Requiem (BBC Live Version) 	3:37
2-11. Kotiteollisuus 	Pandemonium 	6:31

EAC-Log, CUE-Sheed & NFO:

Click to open spoiler
Exact Audio Copy V0.99 prebeta 4 from 23. January 2008

EAC extraction logfile from 29. September 2010, 22:06

Killing Joke / Absolute Dissent

Used drive : PIONEER DVD-RW DVR-115D Adapter: 0 ID: 0

Read mode : Secure
Utilize accurate stream : Yes
Defeat audio cache : Yes
Make use of C2 pointers : No

Read offset correction : 48
Overread into Lead-In and Lead-Out : No
Fill up missing offset samples with silence : Yes
Delete leading and trailing silent blocks : No
Null samples used in CRC calculations : Yes
Used interface : Native Win32 interface for Win NT & 2000
Gap handling : Appended to previous track

Used output format : User Defined Encoder
Selected bitrate : 768 kBit/s
Quality : High
Add ID3 tag : No
Command line compressor : C:\Program Files\Exact Audio Copy\FLAC\FLAC.EXE
Additional command line options : -6 -V -T “ARTIST=%a” -T “TITLE=%t” -T “ALBUM=%g” -T “DATE=%y” -T “TRACKNUMBER=%n” -T “GENRE=%m” -T “COMMENT=%e” %s -o %d

TOC of the extracted CD

Track | Start | Length | Start sector | End sector
———————————————————
1 | 0:00.00 | 6:16.31 | 0 | 28230
2 | 6:16.31 | 5:57.70 | 28231 | 55075
3 | 12:14.26 | 3:23.74 | 55076 | 70374
4 | 15:38.25 | 4:04.06 | 70375 | 88680
5 | 19:42.31 | 4:42.24 | 88681 | 109854
6 | 24:24.55 | 5:27.38 | 109855 | 134417
7 | 29:52.18 | 4:41.21 | 134418 | 155513
8 | 34:33.39 | 6:33.74 | 155514 | 185062
9 | 41:07.38 | 5:50.41 | 185063 | 211353
10 | 46:58.04 | 4:17.13 | 211354 | 230641
11 | 51:15.17 | 5:04.39 | 230642 | 253480
12 | 56:19.56 | 6:32.63 | 253481 | 282943

Track 1

Filename g:\EAC Ripping\Killing Joke – Absolute Dissent\01. Absolute Dissent.wav

Pre-gap length 0:00:02.00

Peak level 99.9 %
Track quality 100.0 %
Test CRC 934D6AB6
Copy CRC 934D6AB6
Track not present in AccurateRip database
Copy OK

Track 2

Filename g:\EAC Ripping\Killing Joke – Absolute Dissent\02. The Great Cull.wav

Peak level 99.9 %
Track quality 99.9 %
Test CRC F4C1B202
Copy CRC F4C1B202
Track not present in AccurateRip database
Copy OK

Track 3

Filename g:\EAC Ripping\Killing Joke – Absolute Dissent\03. Fresh Fever From The Skies.wav

Peak level 99.9 %
Track quality 100.0 %
Test CRC D1246132
Copy CRC D1246132
Track not present in AccurateRip database
Copy OK

Track 4

Filename g:\EAC Ripping\Killing Joke – Absolute Dissent\04. In Excelsis.wav

Peak level 85.8 %
Track quality 99.9 %
Test CRC 94C0356F
Copy CRC 94C0356F
Track not present in AccurateRip database
Copy OK

Track 5

Filename g:\EAC Ripping\Killing Joke – Absolute Dissent\05. European Super State.wav

Peak level 99.9 %
Track quality 100.0 %
Test CRC 639E3C89
Copy CRC 639E3C89
Track not present in AccurateRip database
Copy OK

Track 6

Filename g:\EAC Ripping\Killing Joke – Absolute Dissent\06. This World Hell.wav

Peak level 98.1 %
Track quality 100.0 %
Test CRC F37BABC9
Copy CRC F37BABC9
Track not present in AccurateRip database
Copy OK

Track 7

Filename g:\EAC Ripping\Killing Joke – Absolute Dissent\07. Endgame.wav

Peak level 99.9 %
Track quality 100.0 %
Test CRC DBD4D835
Copy CRC DBD4D835
Track not present in AccurateRip database
Copy OK

Track 8

Filename g:\EAC Ripping\Killing Joke – Absolute Dissent\08. The Raven King.wav

Peak level 97.5 %
Track quality 100.0 %
Test CRC C394914C
Copy CRC C394914C
Track not present in AccurateRip database
Copy OK

Track 9

Filename g:\EAC Ripping\Killing Joke – Absolute Dissent\09. Honour The Fire.wav

Peak level 94.3 %
Track quality 100.0 %
Test CRC 327B9EE4
Copy CRC 327B9EE4
Track not present in AccurateRip database
Copy OK

Track 10

Filename g:\EAC Ripping\Killing Joke – Absolute Dissent\10. Depthcharge.wav

Peak level 99.9 %
Track quality 100.0 %
Test CRC F2D25186
Copy CRC F2D25186
Track not present in AccurateRip database
Copy OK

Track 11

Filename g:\EAC Ripping\Killing Joke – Absolute Dissent\11. Here Comes The Singularity.wav

Peak level 97.1 %
Track quality 99.9 %
Test CRC 2A47C1B2
Copy CRC 2A47C1B2
Track not present in AccurateRip database
Copy OK

Track 12

Filename g:\EAC Ripping\Killing Joke – Absolute Dissent\12. Ghosts Of Ladbroke Grove.wav

Peak level 93.4 %
Track quality 99.9 %
Test CRC 992FDD2A
Copy CRC 992FDD2A
Track not present in AccurateRip database
Copy OK

None of the tracks are present in the AccurateRip database

No errors occurred

End of status report

Exact Audio Copy V0.99 prebeta 4 from 23. January 2008

EAC extraction logfile from 29. September 2010, 22:32

Various / Absolute Respect

Used drive : PIONEER DVD-RW DVR-115D Adapter: 0 ID: 0

Read mode : Secure
Utilize accurate stream : Yes
Defeat audio cache : Yes
Make use of C2 pointers : No

Read offset correction : 48
Overread into Lead-In and Lead-Out : No
Fill up missing offset samples with silence : Yes
Delete leading and trailing silent blocks : No
Null samples used in CRC calculations : Yes
Used interface : Native Win32 interface for Win NT & 2000
Gap handling : Appended to previous track

Used output format : User Defined Encoder
Selected bitrate : 768 kBit/s
Quality : High
Add ID3 tag : No
Command line compressor : C:\Program Files\Exact Audio Copy\FLAC\FLAC.EXE
Additional command line options : -6 -V -T “ARTIST=%a” -T “TITLE=%t” -T “ALBUM=%g” -T “DATE=%y” -T “TRACKNUMBER=%n” -T “GENRE=%m” -T “COMMENT=%e” %s -o %d

TOC of the extracted CD

Track | Start | Length | Start sector | End sector
———————————————————
1 | 0:00.00 | 4:52.55 | 0 | 21954
2 | 4:52.55 | 3:58.19 | 21955 | 39823
3 | 8:50.74 | 4:00.00 | 39824 | 57823
4 | 12:50.74 | 5:00.21 | 57824 | 80344
5 | 17:51.20 | 3:41.48 | 80345 | 96967
6 | 21:32.68 | 7:23.16 | 96968 | 130208
7 | 28:56.09 | 3:29.53 | 130209 | 145936
8 | 32:25.62 | 4:10.74 | 145937 | 164760
9 | 36:36.61 | 5:25.10 | 164761 | 189145
10 | 42:01.71 | 3:36.40 | 189146 | 205385
11 | 45:38.36 | 6:30.39 | 205386 | 234674

Track 1

Filename g:\EAC Ripping\Various – Absolute Respect\01. Metallica – The Wait.wav

Pre-gap length 0:00:02.00

Peak level 100.0 %
Track quality 100.0 %
Test CRC F2C234AA
Copy CRC F2C234AA
Track not present in AccurateRip database
Copy OK

Track 2

Filename g:\EAC Ripping\Various – Absolute Respect\02. Amen – Europe (BBC Live Version).wav

Pre-gap length 0:00:00.29

Peak level 100.0 %
Track quality 100.0 %
Test CRC 29B8A27C
Copy CRC 29B8A27C
Track not present in AccurateRip database
Copy OK

Track 3

Filename g:\EAC Ripping\Various – Absolute Respect\03. Helmet – Primitive.wav

Pre-gap length 0:00:00.27

Peak level 100.0 %
Track quality 100.0 %
Test CRC A711349E
Copy CRC A711349E
Track not present in AccurateRip database
Copy OK

Track 4

Filename g:\EAC Ripping\Various – Absolute Respect\04. Econoline Crush – Pssyche.wav

Pre-gap length 0:00:00.47

Peak level 99.2 %
Track quality 100.0 %
Test CRC 609143B1
Copy CRC 609143B1
Track not present in AccurateRip database
Copy OK

Track 5

Filename g:\EAC Ripping\Various – Absolute Respect\05. Dead By April – Love Like Blood.wav

Pre-gap length 0:00:00.49

Peak level 100.0 %
Track quality 100.0 %
Test CRC 43ABF272
Copy CRC 43ABF272
Track not present in AccurateRip database
Copy OK

Track 6

Filename g:\EAC Ripping\Various – Absolute Respect\06. Killing Joke – Democracy (NIN Remix).wav

Pre-gap length 0:00:00.25

Peak level 99.7 %
Track quality 100.0 %
Test CRC 05A1B3D3
Copy CRC 05A1B3D3
Track not present in AccurateRip database
Copy OK

Track 7

Filename g:\EAC Ripping\Various – Absolute Respect\07. The Mad Capsule Markets – Wardance.wav

Pre-gap length 0:00:00.32

Peak level 100.0 %
Track quality 100.0 %
Test CRC BFA32427
Copy CRC BFA32427
Track not present in AccurateRip database
Copy OK

Track 8

Filename g:\EAC Ripping\Various – Absolute Respect\08. Nouvelle Vague – Pssyche.wav

Peak level 100.0 %
Track quality 100.0 %
Test CRC B78AF5EE
Copy CRC B78AF5EE
Track not present in AccurateRip database
Copy OK

Track 9

Filename g:\EAC Ripping\Various – Absolute Respect\09. Fear Factory – Millennium.wav

Peak level 99.6 %
Track quality 100.0 %
Test CRC 451E08E5
Copy CRC 451E08E5
Track not present in AccurateRip database
Copy OK

Track 10

Filename g:\EAC Ripping\Various – Absolute Respect\10. Foo Fighters – Requiem (BBC Live Version).wav

Peak level 93.9 %
Track quality 99.9 %
Test CRC 05589AED
Copy CRC 05589AED
Track not present in AccurateRip database
Copy OK

Track 11

Filename g:\EAC Ripping\Various – Absolute Respect\11. Kotiteollisuus – Pandemonium.wav

Pre-gap length 0:00:03.05

Peak level 89.1 %
Track quality 99.9 %
Test CRC BC23F5B0
Copy CRC BC23F5B0
Track not present in AccurateRip database
Copy OK

None of the tracks are present in the AccurateRip database

No errors occurred

End of status report

REM GENRE Rock
REM DATE 2010
REM DISCID B40EBC0C
REM COMMENT “ExactAudioCopy v0.99pb4”
CATALOG 0602527341729
PERFORMER “Killing Joke”
TITLE “Absolute Dissent”
FILE “01. Absolute Dissent.flac” WAVE
TRACK 01 AUDIO
TITLE “Absolute Dissent”
PERFORMER “Killing Joke”
ISRC FIUM71001438
INDEX 01 00:00:00
FILE “02. The Great Cull.flac” WAVE
TRACK 02 AUDIO
TITLE “The Great Cull”
PERFORMER “Killing Joke”
ISRC FIUM71001439
INDEX 01 00:00:00
FILE “03. Fresh Fever From The Skies.flac” WAVE
TRACK 03 AUDIO
TITLE “Fresh Fever From The Skies”
PERFORMER “Killing Joke”
ISRC FIUM71001440
INDEX 01 00:00:00
FILE “04. In Excelsis.flac” WAVE
TRACK 04 AUDIO
TITLE “In Excelsis”
PERFORMER “Killing Joke”
ISRC FIUM71001441
INDEX 01 00:00:00
FILE “05. European Super State.flac” WAVE
TRACK 05 AUDIO
TITLE “European Super State”
PERFORMER “Killing Joke”
ISRC FIUM71001442
INDEX 01 00:00:00
FILE “06. This World Hell.flac” WAVE
TRACK 06 AUDIO
TITLE “This World Hell”
PERFORMER “Killing Joke”
ISRC FIUM71001443
INDEX 01 00:00:00
FILE “07. Endgame.flac” WAVE
TRACK 07 AUDIO
TITLE “Endgame”
PERFORMER “Killing Joke”
ISRC FIUM71000354
INDEX 01 00:00:00
FILE “08. The Raven King.flac” WAVE
TRACK 08 AUDIO
TITLE “The Raven King”
PERFORMER “Killing Joke”
ISRC FIUM71001444
INDEX 01 00:00:00
FILE “09. Honour The Fire.flac” WAVE
TRACK 09 AUDIO
TITLE “Honour The Fire”
PERFORMER “Killing Joke”
ISRC FIUM71001445
INDEX 01 00:00:00
FILE “10. Depthcharge.flac” WAVE
TRACK 10 AUDIO
TITLE “Depthcharge”
PERFORMER “Killing Joke”
ISRC FIUM71001446
INDEX 01 00:00:00
FILE “11. Here Comes The Singularity.flac” WAVE
TRACK 11 AUDIO
TITLE “Here Comes The Singularity”
PERFORMER “Killing Joke”
ISRC FIUM71001447
INDEX 01 00:00:00
FILE “12. Ghosts Of Ladbroke Grove.flac” WAVE
TRACK 12 AUDIO
TITLE “Ghosts Of Ladbroke Grove”
PERFORMER “Killing Joke”
ISRC FIUM71000355
INDEX 01 00:00:00

REM GENRE Rock
REM DATE 2010
REM DISCID 9B0C390B
REM COMMENT “ExactAudioCopy v0.99pb4”
CATALOG 0602527366432
PERFORMER “Various”
TITLE “Absolute Respect”
FILE “01. Metallica – The Wait.flac” WAVE
TRACK 01 AUDIO
TITLE “The Wait”
PERFORMER “Metallica”
ISRC GBAMC8700003
INDEX 01 00:00:00
TRACK 02 AUDIO
TITLE “Europe (BBC Live Version)”
PERFORMER “Amen”
ISRC GBCAD1001096
INDEX 00 04:52:26
FILE “02. Amen – Europe (BBC Live Version).flac” WAVE
INDEX 01 00:00:00
TRACK 03 AUDIO
TITLE “Primitive”
PERFORMER “Helmet”
ISRC GBL5C1000003
INDEX 00 03:57:67
FILE “03. Helmet – Primitive.flac” WAVE
INDEX 01 00:00:00
TRACK 04 AUDIO
TITLE “Pssyche”
PERFORMER “Econoline Crush”
ISRC CAE159400151
INDEX 00 03:59:28
FILE “04. Econoline Crush – Pssyche.flac” WAVE
INDEX 01 00:00:00
TRACK 05 AUDIO
TITLE “Love Like Blood”
PERFORMER “Dead By April”
ISRC SEUM71000230
INDEX 00 04:59:47
FILE “05. Dead By April – Love Like Blood.flac” WAVE
INDEX 01 00:00:00
TRACK 06 AUDIO
TITLE “Democracy (NIN Remix)”
PERFORMER “Killing Joke”
ISRC GBL5C1000001
INDEX 00 03:41:23
FILE “06. Killing Joke – Democracy (NIN Remix).flac” WAVE
INDEX 01 00:00:00
TRACK 07 AUDIO
TITLE “Wardance”
PERFORMER “The Mad Capsule Markets”
ISRC GBL5C1000002
INDEX 00 07:22:59
FILE “07. The Mad Capsule Markets – Wardance.flac” WAVE
INDEX 01 00:00:00
FILE “08. Nouvelle Vague – Pssyche.flac” WAVE
TRACK 08 AUDIO
TITLE “Pssyche”
PERFORMER “Nouvelle Vague”
ISRC GBEWK0400030
INDEX 01 00:00:00
FILE “09. Fear Factory – Millennium.flac” WAVE
TRACK 09 AUDIO
TITLE “Millennium”
PERFORMER “Fear Factory”
ISRC USAFF0500036
INDEX 01 00:00:00
FILE “10. Foo Fighters – Requiem (BBC Live Version).flac” WAVE
TRACK 10 AUDIO
TITLE “Requiem (BBC Live Version)”
PERFORMER “Foo Fighters”
ISRC USBM60700687
INDEX 01 00:00:00
TRACK 11 AUDIO
TITLE “Pandemonium”
PERFORMER “Kotiteollisuus”
ISRC FIUM71001525
INDEX 00 03:33:35
FILE “11. Kotiteollisuus – Pandemonium.flac” WAVE
INDEX 01 00:00:00


Leave a Reply

Your email address will not be published. Required fields are marked *

This site uses Akismet to reduce spam. Learn how your comment data is processed.