Kaiser Chiefs – Duck




Artist: Kaiser Chiefs
Year: 2019
Genre: Alternative
Notes: Discogs
Add. Notes:
Cover incl.: Yes
Encoder: FLAC
Bitrate: ~1000 kBit/s (44.1 kHz/16 Bit/s)
Log & Cue incl.: Yes
Password: “slam” (without ” “)


All Downloads/Hosters are compatible

Download 1
KatFile.com
Turbobit.net
FileFactory.com
Rapidgator.net
Download 2
KatFile.com
Turbobit.net
FileFactory.com
Rapidgator.net

Tracklist:

1 People Know How To Love One Another 
2 Golden Oldies 
3 Wait 
4 Target Market 
5 Don't Just Stand There Do Something 
6 Record Collection 
7 The Only Ones 
8 Lucky Shirt 
9 Electric Heart 
10 Northern Holiday 
11 Kurt Vs. Frasier (The Battle for Seattle)

EAC-Log, CUE-Sheed & NFO:

Click to open spoiler
Exact Audio Copy V1.3 from 2. September 2016

EAC extraction logfile from 27. August 2019, 8:59

Kaiser Chiefs / Duck

Used drive : PLEXTOR PX-891SAF Adapter: 1 ID: 0

Read mode : Secure
Utilize accurate stream : Yes
Defeat audio cache : Yes
Make use of C2 pointers : No

Read offset correction : 6
Overread into Lead-In and Lead-Out : No
Fill up missing offset samples with silence : Yes
Delete leading and trailing silent blocks : No
Null samples used in CRC calculations : Yes
Used interface : Native Win32 interface for Win NT & 2000
Gap handling : Appended to previous track

Used output format : User Defined Encoder
Selected bitrate : 1024 kBit/s
Quality : High
Add ID3 tag : No
Command line compressor : C:\Program Files (x86)\Exact Audio Copy\Flac\flac.exe
Additional command line options : -8 -V -T “ARTIST=%artist%” -T “TITLE=%title%” -T “ALBUM=%albumtitle%” -T “DATE=%year%” -T “TRACKNUMBER=%tracknr%” -T “GENRE=%genre%” -T “PERFORMER=%albuminterpret%” -T “COMPOSER=%composer%” %haslyrics%–tag-from-file=LYRICS=”%lyricsfile%”%haslyrics% -T “ALBUMARTIST=%albumartist%” -T “DISCNUMBER=%cdnumber%” -T “TOTALDISCS=%totalcds%” -T “TOTALTRACKS=%numtracks%” -T “COMMENT=%comment%” %source% -o %dest%

TOC of the extracted CD

Track | Start | Length | Start sector | End sector
———————————————————
1 | 0:00.00 | 3:36.51 | 0 | 16250
2 | 3:36.51 | 4:03.55 | 16251 | 34530
3 | 7:40.31 | 3:50.06 | 34531 | 51786
4 | 11:30.37 | 4:24.29 | 51787 | 71615
5 | 15:54.66 | 2:52.11 | 71616 | 84526
6 | 18:47.02 | 4:17.38 | 84527 | 103839
7 | 23:04.40 | 3:50.55 | 103840 | 121144
8 | 26:55.20 | 3:47.02 | 121145 | 138171
9 | 30:42.22 | 3:09.09 | 138172 | 152355
10 | 33:51.31 | 3:36.03 | 152356 | 168558
11 | 37:27.34 | 3:26.52 | 168559 | 184060

Track 1

Filename D:\#cdr\#wav+flac\Kaiser Chiefs – Duck\01. Kaiser Chiefs – People Know How To Love One Another.wav

Pre-gap length 0:00:02.00

Peak level 99.9 %
Extraction speed 4.9 X
Track quality 100.0 %
Test CRC F7F4FE7F
Copy CRC F7F4FE7F
Track not present in AccurateRip database
Copy OK

Track 2

Filename D:\#cdr\#wav+flac\Kaiser Chiefs – Duck\02. Kaiser Chiefs – Golden Oldies.wav

Peak level 98.6 %
Extraction speed 5.5 X
Track quality 100.0 %
Test CRC CBAE86F9
Copy CRC CBAE86F9
Track not present in AccurateRip database
Copy OK

Track 3

Filename D:\#cdr\#wav+flac\Kaiser Chiefs – Duck\03. Kaiser Chiefs – Wait.wav

Peak level 98.6 %
Extraction speed 5.0 X
Track quality 99.9 %
Test CRC 852C1AF9
Copy CRC 852C1AF9
Track not present in AccurateRip database
Copy OK

Track 4

Filename D:\#cdr\#wav+flac\Kaiser Chiefs – Duck\04. Kaiser Chiefs – Target Market.wav

Peak level 99.8 %
Extraction speed 6.5 X
Track quality 100.0 %
Test CRC 37198388
Copy CRC 37198388
Track not present in AccurateRip database
Copy OK

Track 5

Filename D:\#cdr\#wav+flac\Kaiser Chiefs – Duck\05. Kaiser Chiefs – Don’t Just Stand There, Do Something.wav

Peak level 98.6 %
Extraction speed 6.5 X
Track quality 100.0 %
Test CRC 625EB0E8
Copy CRC 625EB0E8
Track not present in AccurateRip database
Copy OK

Track 6

Filename D:\#cdr\#wav+flac\Kaiser Chiefs – Duck\06. Kaiser Chiefs – Record Collection.wav

Peak level 95.4 %
Extraction speed 7.2 X
Track quality 100.0 %
Test CRC FCA8D44C
Copy CRC FCA8D44C
Track not present in AccurateRip database
Copy OK

Track 7

Filename D:\#cdr\#wav+flac\Kaiser Chiefs – Duck\07. Kaiser Chiefs – The Only Ones.wav

Peak level 98.6 %
Extraction speed 6.2 X
Track quality 99.9 %
Test CRC 17A1F92D
Copy CRC 17A1F92D
Track not present in AccurateRip database
Copy OK

Track 8

Filename D:\#cdr\#wav+flac\Kaiser Chiefs – Duck\08. Kaiser Chiefs – Lucky Shirt.wav

Peak level 98.6 %
Extraction speed 7.7 X
Track quality 100.0 %
Test CRC 8B3A3040
Copy CRC 8B3A3040
Track not present in AccurateRip database
Copy OK

Track 9

Filename D:\#cdr\#wav+flac\Kaiser Chiefs – Duck\09. Kaiser Chiefs – Electric Heart.wav

Peak level 98.6 %
Extraction speed 7.8 X
Track quality 100.0 %
Test CRC 5BD35C45
Copy CRC 5BD35C45
Track not present in AccurateRip database
Copy OK

Track 10

Filename D:\#cdr\#wav+flac\Kaiser Chiefs – Duck\10. Kaiser Chiefs – Northern Holiday.wav

Peak level 98.6 %
Extraction speed 8.2 X
Track quality 100.0 %
Test CRC 8ECF46BF
Copy CRC 8ECF46BF
Track not present in AccurateRip database
Copy OK

Track 11

Filename D:\#cdr\#wav+flac\Kaiser Chiefs – Duck\11. Kaiser Chiefs – Kurt Vs Frasier (The Battle For Seattle).wav

Peak level 98.6 %
Extraction speed 8.4 X
Track quality 100.0 %
Test CRC F2A4368D
Copy CRC F2A4368D
Track not present in AccurateRip database
Copy OK

None of the tracks are present in the AccurateRip database

No errors occurred

End of status report

—- CUETools DB Plugin V2.1.6

[CTDB TOCID: d3qBwycJ2ijUXbc_mHSVjLrrtnw-] found
Submit result: d3qBwycJ2ijUXbc_mHSVjLrrtnw- has been confirmed
Track | CTDB Status
1 | (21/21) Accurately ripped
2 | (21/21) Accurately ripped
3 | (21/21) Accurately ripped
4 | (21/21) Accurately ripped
5 | (21/21) Accurately ripped
6 | (21/21) Accurately ripped
7 | (21/21) Accurately ripped
8 | (21/21) Accurately ripped
9 | (21/21) Accurately ripped
10 | (21/21) Accurately ripped
11 | (21/21) Accurately ripped

==== Log checksum 3B71586608EF4DF964E4BAD0659B247BC2AE7898AAB40EDBD3EBDB23737F0EB4 ====

————————————————————

Exact Audio Copy V1.3 from 2. September 2016

EAC extraction logfile from 27. August 2019, 8:59

Kaiser Chiefs / Duck

Used drive : PLEXTOR PX-891SAF Adapter: 1 ID: 0

Read mode : Secure
Utilize accurate stream : Yes
Defeat audio cache : Yes
Make use of C2 pointers : No

Read offset correction : 6
Overread into Lead-In and Lead-Out : No
Fill up missing offset samples with silence : Yes
Delete leading and trailing silent blocks : No
Null samples used in CRC calculations : Yes
Used interface : Native Win32 interface for Win NT & 2000
Gap handling : Appended to previous track

Used output format : User Defined Encoder
Selected bitrate : 1024 kBit/s
Quality : High
Add ID3 tag : No
Command line compressor : C:\Program Files (x86)\Exact Audio Copy\Flac\flac.exe
Additional command line options : -8 -V -T “ARTIST=%artist%” -T “TITLE=%title%” -T “ALBUM=%albumtitle%” -T “DATE=%year%” -T “TRACKNUMBER=%tracknr%” -T “GENRE=%genre%” -T “PERFORMER=%albuminterpret%” -T “COMPOSER=%composer%” %haslyrics%–tag-from-file=LYRICS=”%lyricsfile%”%haslyrics% -T “ALBUMARTIST=%albumartist%” -T “DISCNUMBER=%cdnumber%” -T “TOTALDISCS=%totalcds%” -T “TOTALTRACKS=%numtracks%” -T “COMMENT=%comment%” %source% -o %dest%

TOC of the extracted CD

Track | Start | Length | Start sector | End sector
———————————————————
1 | 0:00.00 | 3:36.51 | 0 | 16250
2 | 3:36.51 | 4:03.55 | 16251 | 34530
3 | 7:40.31 | 3:50.06 | 34531 | 51786
4 | 11:30.37 | 4:24.29 | 51787 | 71615
5 | 15:54.66 | 2:52.11 | 71616 | 84526
6 | 18:47.02 | 4:17.38 | 84527 | 103839
7 | 23:04.40 | 3:50.55 | 103840 | 121144
8 | 26:55.20 | 3:47.02 | 121145 | 138171
9 | 30:42.22 | 3:09.09 | 138172 | 152355
10 | 33:51.31 | 3:36.03 | 152356 | 168558
11 | 37:27.34 | 3:26.52 | 168559 | 184060

Track 1

Filename D:\#cdr\#wav+flac\Kaiser Chiefs – Duck\01. Kaiser Chiefs – People Know How To Love One Another.wav

Pre-gap length 0:00:02.00

Peak level 99.9 %
Extraction speed 4.9 X
Track quality 100.0 %
Test CRC F7F4FE7F
Copy CRC F7F4FE7F
Track not present in AccurateRip database
Copy OK

Track 2

Filename D:\#cdr\#wav+flac\Kaiser Chiefs – Duck\02. Kaiser Chiefs – Golden Oldies.wav

Peak level 98.6 %
Extraction speed 5.5 X
Track quality 100.0 %
Test CRC CBAE86F9
Copy CRC CBAE86F9
Track not present in AccurateRip database
Copy OK

Track 3

Filename D:\#cdr\#wav+flac\Kaiser Chiefs – Duck\03. Kaiser Chiefs – Wait.wav

Peak level 98.6 %
Extraction speed 5.0 X
Track quality 99.9 %
Test CRC 852C1AF9
Copy CRC 852C1AF9
Track not present in AccurateRip database
Copy OK

Track 4

Filename D:\#cdr\#wav+flac\Kaiser Chiefs – Duck\04. Kaiser Chiefs – Target Market.wav

Peak level 99.8 %
Extraction speed 6.5 X
Track quality 100.0 %
Test CRC 37198388
Copy CRC 37198388
Track not present in AccurateRip database
Copy OK

Track 5

Filename D:\#cdr\#wav+flac\Kaiser Chiefs – Duck\05. Kaiser Chiefs – Don’t Just Stand There, Do Something.wav

Peak level 98.6 %
Extraction speed 6.5 X
Track quality 100.0 %
Test CRC 625EB0E8
Copy CRC 625EB0E8
Track not present in AccurateRip database
Copy OK

Track 6

Filename D:\#cdr\#wav+flac\Kaiser Chiefs – Duck\06. Kaiser Chiefs – Record Collection.wav

Peak level 95.4 %
Extraction speed 7.2 X
Track quality 100.0 %
Test CRC FCA8D44C
Copy CRC FCA8D44C
Track not present in AccurateRip database
Copy OK

Track 7

Filename D:\#cdr\#wav+flac\Kaiser Chiefs – Duck\07. Kaiser Chiefs – The Only Ones.wav

Peak level 98.6 %
Extraction speed 6.2 X
Track quality 99.9 %
Test CRC 17A1F92D
Copy CRC 17A1F92D
Track not present in AccurateRip database
Copy OK

Track 8

Filename D:\#cdr\#wav+flac\Kaiser Chiefs – Duck\08. Kaiser Chiefs – Lucky Shirt.wav

Peak level 98.6 %
Extraction speed 7.7 X
Track quality 100.0 %
Test CRC 8B3A3040
Copy CRC 8B3A3040
Track not present in AccurateRip database
Copy OK

Track 9

Filename D:\#cdr\#wav+flac\Kaiser Chiefs – Duck\09. Kaiser Chiefs – Electric Heart.wav

Peak level 98.6 %
Extraction speed 7.8 X
Track quality 100.0 %
Test CRC 5BD35C45
Copy CRC 5BD35C45
Track not present in AccurateRip database
Copy OK

Track 10

Filename D:\#cdr\#wav+flac\Kaiser Chiefs – Duck\10. Kaiser Chiefs – Northern Holiday.wav

Peak level 98.6 %
Extraction speed 8.2 X
Track quality 100.0 %
Test CRC 8ECF46BF
Copy CRC 8ECF46BF
Track not present in AccurateRip database
Copy OK

Track 11

Filename D:\#cdr\#wav+flac\Kaiser Chiefs – Duck\11. Kaiser Chiefs – Kurt Vs Frasier (The Battle For Seattle).wav

Peak level 98.6 %
Extraction speed 8.4 X
Track quality 100.0 %
Test CRC F2A4368D
Copy CRC F2A4368D
Track not present in AccurateRip database
Copy OK

None of the tracks are present in the AccurateRip database

No errors occurred

End of status report

—- CUETools DB Plugin V2.1.6

[CTDB TOCID: d3qBwycJ2ijUXbc_mHSVjLrrtnw-] found
Submit result: d3qBwycJ2ijUXbc_mHSVjLrrtnw- has been confirmed
Track | CTDB Status
1 | (21/21) Accurately ripped
2 | (21/21) Accurately ripped
3 | (21/21) Accurately ripped
4 | (21/21) Accurately ripped
5 | (21/21) Accurately ripped
6 | (21/21) Accurately ripped
7 | (21/21) Accurately ripped
8 | (21/21) Accurately ripped
9 | (21/21) Accurately ripped
10 | (21/21) Accurately ripped
11 | (21/21) Accurately ripped

==== Log checksum 3B71586608EF4DF964E4BAD0659B247BC2AE7898AAB40EDBD3EBDB23737F0EB4 ====

REM GENRE Alternative
REM DATE 2019
REM DISCID 9609960B
REM COMMENT “ExactAudioCopy v1.3”
CATALOG 0602577131899
PERFORMER “Kaiser Chiefs”
TITLE “Duck”
REM COMPOSER “”
FILE “01. Kaiser Chiefs – People Know How To Love One Another.wav” WAVE
TRACK 01 AUDIO
TITLE “People Know How To Love One Another”
PERFORMER “Kaiser Chiefs”
REM COMPOSER “”
ISRC GBUM71902296
INDEX 01 00:00:00
FILE “02. Kaiser Chiefs – Golden Oldies.wav” WAVE
TRACK 02 AUDIO
TITLE “Golden Oldies”
PERFORMER “Kaiser Chiefs”
REM COMPOSER “”
ISRC GBUM71902299
INDEX 01 00:00:00
FILE “03. Kaiser Chiefs – Wait.wav” WAVE
TRACK 03 AUDIO
TITLE “Wait”
PERFORMER “Kaiser Chiefs”
REM COMPOSER “”
ISRC GBUM71902301
INDEX 01 00:00:00
FILE “04. Kaiser Chiefs – Target Market.wav” WAVE
TRACK 04 AUDIO
TITLE “Target Market”
PERFORMER “Kaiser Chiefs”
REM COMPOSER “”
ISRC GBUM71902302
INDEX 01 00:00:00
FILE “05. Kaiser Chiefs – Don’t Just Stand There, Do Something.wav” WAVE
TRACK 05 AUDIO
TITLE “Don’t Just Stand There, Do Something”
PERFORMER “Kaiser Chiefs”
REM COMPOSER “”
ISRC GBUM71902298
INDEX 01 00:00:00
FILE “06. Kaiser Chiefs – Record Collection.wav” WAVE
TRACK 06 AUDIO
TITLE “Record Collection”
PERFORMER “Kaiser Chiefs”
REM COMPOSER “”
ISRC GBUM71902307
INDEX 01 00:00:00
FILE “07. Kaiser Chiefs – The Only Ones.wav” WAVE
TRACK 07 AUDIO
TITLE “The Only Ones”
PERFORMER “Kaiser Chiefs”
REM COMPOSER “”
ISRC GBUM71902294
INDEX 01 00:00:00
FILE “08. Kaiser Chiefs – Lucky Shirt.wav” WAVE
TRACK 08 AUDIO
TITLE “Lucky Shirt”
PERFORMER “Kaiser Chiefs”
REM COMPOSER “”
ISRC GBUM71902297
INDEX 01 00:00:00
FILE “09. Kaiser Chiefs – Electric Heart.wav” WAVE
TRACK 09 AUDIO
TITLE “Electric Heart”
PERFORMER “Kaiser Chiefs”
REM COMPOSER “”
ISRC GBUM71902300
INDEX 01 00:00:00
FILE “10. Kaiser Chiefs – Northern Holiday.wav” WAVE
TRACK 10 AUDIO
TITLE “Northern Holiday”
PERFORMER “Kaiser Chiefs”
REM COMPOSER “”
ISRC GBUM71902304
INDEX 01 00:00:00
FILE “11. Kaiser Chiefs – Kurt Vs Frasier (The Battle For Seattle).wav” WAVE
TRACK 11 AUDIO
TITLE “Kurt Vs Frasier (The Battle For Seattle)”
PERFORMER “Kaiser Chiefs”
REM COMPOSER “”
ISRC GBUM71902295
INDEX 01 00:00:00


Leave a Reply

Your email address will not be published. Required fields are marked *

This site uses Akismet to reduce spam. Learn how your comment data is processed.