Jungle Dogs – Jungle Dogs




Artist: Jungle Dogs
Year: 1992
Genre: Ska
Notes: Discogs
Add. Notes:
Cover incl.: Yes
Encoder: FLAC
Bitrate: ~800 kBit/s (44.1 kHz/16 Bit/s)
Log & Cue incl.: Yes
Size: 256,37 MB
Password: “slam” (without ” “)


All Downloads/Hosters are compatible

Download 1
Turbobit.net
Rapidgator.net
KatFile.com
UploadRar.com
Download 2
Turbobit.net
Rapidgator.net
KatFile.com
UploadRar.com
Download 3
Turbobit.net
Rapidgator.net
KatFile.com
UploadRar.com

Tracklist:

1 - Betty's No Ho - 4:35
2 - Yo No Tengo - 4:54
3 - Into The Light - 5:51
4 - Baila - 5:10
5 - When The Bomb Falls Down - 5:22
6 - Frankie Goes To The U. Of I. - 3:42
7 - Priscilla - 3:23
8 - Dive - 4:52
9 - Go - 4:06

EAC-Log, CUE-Sheed & NFO:

Click to open spoiler
X Lossless Decoder version 20100401 (117.0)

XLD extraction logfile from 2010-04-01 09:31:58 -0500

Jungle Dogs / Jungle Dogs

Used drive : MATSHITA DVD-R UJ-85J (revision FM0S)

Use cdparanoia mode : YES (CDParanoia III 10.2 engine)
Disable audio cache : OK for the drive with cache less than 2750KB
Make use of C2 pointers : NO
Read offset correction : 102
Max retry count : 100

TOC of the extracted CD
Track | Start | Length | Start sector | End sector
———————————————————
1 | 00:00:00 | 04:36:60 | 0 | 20759
2 | 04:36:60 | 04:55:43 | 20760 | 42927
3 | 09:32:28 | 05:54:37 | 42928 | 69514
4 | 15:26:65 | 05:12:60 | 69515 | 92974
5 | 20:39:50 | 05:23:58 | 92975 | 117257
6 | 26:03:33 | 03:43:60 | 117258 | 134042
7 | 29:47:18 | 03:25:17 | 134043 | 149434
8 | 33:12:35 | 04:54:20 | 149435 | 171504
9 | 38:06:55 | 04:06:35 | 171505 | 189989

Track 01
Filename : /Users/Swiv/Music/ripped FLACS/Jungle Dogs – 1992 – Jungle Dogs/01 – Betty’s No Ho.flac
/Users/Swiv/Music/ripped FLACS/Jungle Dogs – 1992 – Jungle Dogs/01 – Betty’s No Ho.mp3

Pre-gap length : 00:02:00

CRC32 hash (test run) : 58846C5D
CRC32 hash : 58846C5D
CRC32 hash (skip zero) : 135D53A6
AccurateRip signature : E0137966
->Track not present in AccurateRip database.
Statistics
Read error : 0
Skipped (treated as error) : 0
Edge jitter error (maybe fixed) : 0
Atom jitter error (maybe fixed) : 0
Drift error (maybe fixed) : 0
Dropped bytes error (maybe fixed) : 0
Duplicated bytes error (maybe fixed) : 0
Inconsistency in error sectors : 0

Track 02
Filename : /Users/Swiv/Music/ripped FLACS/Jungle Dogs – 1992 – Jungle Dogs/02 – Yo No Tengo.flac
/Users/Swiv/Music/ripped FLACS/Jungle Dogs – 1992 – Jungle Dogs/02 – Yo No Tengo.mp3

CRC32 hash (test run) : 400CF15B
CRC32 hash : 400CF15B
CRC32 hash (skip zero) : 9D626287
AccurateRip signature : 8E956552
->Track not present in AccurateRip database.
Statistics
Read error : 0
Skipped (treated as error) : 0
Edge jitter error (maybe fixed) : 0
Atom jitter error (maybe fixed) : 0
Drift error (maybe fixed) : 0
Dropped bytes error (maybe fixed) : 0
Duplicated bytes error (maybe fixed) : 0
Inconsistency in error sectors : 0

Track 03
Filename : /Users/Swiv/Music/ripped FLACS/Jungle Dogs – 1992 – Jungle Dogs/03 – Into The Light.flac
/Users/Swiv/Music/ripped FLACS/Jungle Dogs – 1992 – Jungle Dogs/03 – Into The Light.mp3

CRC32 hash (test run) : E7DA5909
CRC32 hash : E7DA5909
CRC32 hash (skip zero) : 345AE557
AccurateRip signature : 89197229
->Track not present in AccurateRip database.
Statistics
Read error : 0
Skipped (treated as error) : 0
Edge jitter error (maybe fixed) : 0
Atom jitter error (maybe fixed) : 0
Drift error (maybe fixed) : 0
Dropped bytes error (maybe fixed) : 0
Duplicated bytes error (maybe fixed) : 0
Inconsistency in error sectors : 0

Track 04
Filename : /Users/Swiv/Music/ripped FLACS/Jungle Dogs – 1992 – Jungle Dogs/04 – Baila.flac
/Users/Swiv/Music/ripped FLACS/Jungle Dogs – 1992 – Jungle Dogs/04 – Baila.mp3

CRC32 hash (test run) : 6F584703
CRC32 hash : 6F584703
CRC32 hash (skip zero) : 41290C47
AccurateRip signature : 69DE4683
->Track not present in AccurateRip database.
Statistics
Read error : 0
Skipped (treated as error) : 0
Edge jitter error (maybe fixed) : 0
Atom jitter error (maybe fixed) : 0
Drift error (maybe fixed) : 0
Dropped bytes error (maybe fixed) : 0
Duplicated bytes error (maybe fixed) : 0
Inconsistency in error sectors : 0

Track 05
Filename : /Users/Swiv/Music/ripped FLACS/Jungle Dogs – 1992 – Jungle Dogs/05 – When The Bomb Falls Down.flac
/Users/Swiv/Music/ripped FLACS/Jungle Dogs – 1992 – Jungle Dogs/05 – When The Bomb Falls Down.mp3

CRC32 hash (test run) : 57BBB588
CRC32 hash : 57BBB588
CRC32 hash (skip zero) : 4FE7E02A
AccurateRip signature : 9B31381E
->Track not present in AccurateRip database.
Statistics
Read error : 0
Skipped (treated as error) : 0
Edge jitter error (maybe fixed) : 0
Atom jitter error (maybe fixed) : 200
Drift error (maybe fixed) : 0
Dropped bytes error (maybe fixed) : 0
Duplicated bytes error (maybe fixed) : 0
Inconsistency in error sectors : 0

Track 06
Filename : /Users/Swiv/Music/ripped FLACS/Jungle Dogs – 1992 – Jungle Dogs/06 – Frankie Goes To U. Of I..flac
/Users/Swiv/Music/ripped FLACS/Jungle Dogs – 1992 – Jungle Dogs/06 – Frankie Goes To U. Of I..mp3

CRC32 hash (test run) : 300D88F5
CRC32 hash : 300D88F5
CRC32 hash (skip zero) : 108D7600
AccurateRip signature : 57CE37CB
->Track not present in AccurateRip database.
Statistics
Read error : 0
Skipped (treated as error) : 0
Edge jitter error (maybe fixed) : 0
Atom jitter error (maybe fixed) : 0
Drift error (maybe fixed) : 0
Dropped bytes error (maybe fixed) : 0
Duplicated bytes error (maybe fixed) : 0
Inconsistency in error sectors : 0

Track 07
Filename : /Users/Swiv/Music/ripped FLACS/Jungle Dogs – 1992 – Jungle Dogs/07 – Priscilla.flac
/Users/Swiv/Music/ripped FLACS/Jungle Dogs – 1992 – Jungle Dogs/07 – Priscilla.mp3

CRC32 hash (test run) : FD7F20AF
CRC32 hash : FD7F20AF
CRC32 hash (skip zero) : 6C6D7D17
AccurateRip signature : 023AD549
->Track not present in AccurateRip database.
Statistics
Read error : 0
Skipped (treated as error) : 0
Edge jitter error (maybe fixed) : 0
Atom jitter error (maybe fixed) : 0
Drift error (maybe fixed) : 0
Dropped bytes error (maybe fixed) : 0
Duplicated bytes error (maybe fixed) : 0
Inconsistency in error sectors : 0

Track 08
Filename : /Users/Swiv/Music/ripped FLACS/Jungle Dogs – 1992 – Jungle Dogs/08 – Dive.flac
/Users/Swiv/Music/ripped FLACS/Jungle Dogs – 1992 – Jungle Dogs/08 – Dive.mp3

CRC32 hash (test run) : 85501DBB
CRC32 hash : 85501DBB
CRC32 hash (skip zero) : EEC1A2EE
AccurateRip signature : 6F5F9674
->Track not present in AccurateRip database.
Statistics
Read error : 0
Skipped (treated as error) : 0
Edge jitter error (maybe fixed) : 0
Atom jitter error (maybe fixed) : 0
Drift error (maybe fixed) : 0
Dropped bytes error (maybe fixed) : 0
Duplicated bytes error (maybe fixed) : 0
Inconsistency in error sectors : 0

Track 09
Filename : /Users/Swiv/Music/ripped FLACS/Jungle Dogs – 1992 – Jungle Dogs/09 – Go.flac
/Users/Swiv/Music/ripped FLACS/Jungle Dogs – 1992 – Jungle Dogs/09 – Go.mp3

CRC32 hash (test run) : FD512EAD
CRC32 hash : FD512EAD
CRC32 hash (skip zero) : 0AE9918E
AccurateRip signature : 3CE760F4
->Track not present in AccurateRip database.
Statistics
Read error : 0
Skipped (treated as error) : 0
Edge jitter error (maybe fixed) : 0
Atom jitter error (maybe fixed) : 0
Drift error (maybe fixed) : 0
Dropped bytes error (maybe fixed) : 0
Duplicated bytes error (maybe fixed) : 0
Inconsistency in error sectors : 0

No errors occurred

End of status report

PERFORMER “Jungle Dogs”
TITLE “Jungle Dogs”
REM GENRE “Ska”
FILE “01 – Betty’s No Ho.wav” WAVE
TRACK 01 AUDIO
TITLE “Betty’s No Ho”
INDEX 01 00:00:00
FILE “02 – Yo No Tengo.wav” WAVE
TRACK 02 AUDIO
TITLE “Yo No Tengo”
INDEX 01 00:00:00
FILE “03 – Into The Light.wav” WAVE
TRACK 03 AUDIO
TITLE “Into The Light”
INDEX 01 00:00:00
FILE “04 – Baila.wav” WAVE
TRACK 04 AUDIO
TITLE “Baila”
INDEX 01 00:00:00
FILE “05 – When The Bomb Falls Down.wav” WAVE
TRACK 05 AUDIO
TITLE “When The Bomb Falls Down”
INDEX 01 00:00:00
FILE “06 – Frankie Goes To U. Of I..wav” WAVE
TRACK 06 AUDIO
TITLE “Frankie Goes To U. Of I.”
INDEX 01 00:00:00
FILE “07 – Priscilla.wav” WAVE
TRACK 07 AUDIO
TITLE “Priscilla”
INDEX 01 00:00:00
FILE “08 – Dive.wav” WAVE
TRACK 08 AUDIO
TITLE “Dive”
INDEX 01 00:00:00
FILE “09 – Go.wav” WAVE
TRACK 09 AUDIO
TITLE “Go”
INDEX 01 00:00:00


Leave a Reply

Your email address will not be published. Required fields are marked *

This site uses Akismet to reduce spam. Learn how your comment data is processed.