Judas Priest – Turbo (Remastered)




Artist: Judas Priest
Year: 1986/2002
Genre: Metal
Notes: Discogs
Add. Notes: Remastered
Cover incl.: Yes
Encoder: FLAC
Bitrate: ~1000 kBit/s (44.1 kHz/16 Bit/s)
Log & Cue incl.: Yes
Size: 331,05 MB
Password: “slam” (without ” “)


All Downloads/Hosters are compatible

Download 1
Turbobit.net
NitroFlare.com
KatFile.com
Rapidgator.net
Download 2
Turbobit.net
NitroFlare.com
KatFile.com
Rapidgator.net

Tracklist:

1 - Turbo Lover - 5:33
2 - Locked In - 4:20
3 - Private Property - 4:30
4 - Parental Guidance - 3:27
5 - Rock You All Around The World - 3:37
6 - Out In The Cold - 6:28
7 - Wild Nights, Hot & Crazy Days - 4:40
8 - Hot For Love - 4:12
9 - Reckless - 4:21
Bonus Tracks
10 - All Fired Up - 4:45
11 - Locked In (Live) - 4:25

EAC-Log, CUE-Sheed & NFO:

Click to open spoiler
REM COMMENT “Restored, equalized version”
REM GENRE “Heavy Metal”
REM DATE 1986
REM COMMENT “Released: 14 Apr 1986”
REM LABEL “Columbia ‎– CK 40158”
REM FORMAT “CD, Album”
PERFORMER “Judas Priest”
TITLE “Turbo”
FILE “01. Turbo Lover.flac” WAVE
TRACK 01 AUDIO
PERFORMER “Judas Priest”
TITLE “Turbo Lover”
INDEX 01 00:00:00
FILE “02. Locked In.flac” WAVE
TRACK 02 AUDIO
PERFORMER “Judas Priest”
TITLE “Locked In”
INDEX 01 00:00:00
FILE “03. Private Property.flac” WAVE
TRACK 03 AUDIO
PERFORMER “Judas Priest”
TITLE “Private Property”
INDEX 01 00:00:00
FILE “04. Parental Guidance.flac” WAVE
TRACK 04 AUDIO
PERFORMER “Judas Priest”
TITLE “Parental Guidance”
INDEX 01 00:00:00
FILE “05. Rock You All Around the World.flac” WAVE
TRACK 05 AUDIO
PERFORMER “Judas Priest”
TITLE “Rock You All Around the World”
INDEX 01 00:00:00
FILE “06. Out in the Cold.flac” WAVE
TRACK 06 AUDIO
PERFORMER “Judas Priest”
TITLE “Out in the Cold”
INDEX 01 00:00:00
FILE “07. Wild Nights, Hot & Crazy Days.flac” WAVE
TRACK 07 AUDIO
PERFORMER “Judas Priest”
TITLE “Wild Nights, Hot & Crazy Days”
INDEX 01 00:00:00
FILE “08. Hot for Love.flac” WAVE
TRACK 08 AUDIO
PERFORMER “Judas Priest”
TITLE “Hot for Love”
INDEX 01 00:00:00
FILE “09. Reckless.flac” WAVE
TRACK 09 AUDIO
PERFORMER “Judas Priest”
TITLE “Reckless”
INDEX 01 00:00:00
FILE “10. All Fired Up [bonus track].flac” WAVE
TRACK 10 AUDIO
PERFORMER “Judas Priest”
TITLE “All Fired Up [bonus track]”
INDEX 01 00:00:00
FILE “11. Locked In [live] [bonus track].flac” WAVE
TRACK 11 AUDIO
PERFORMER “Judas Priest”
TITLE “Locked In [live] [bonus track]”
INDEX 01 00:00:00

Leave a Reply

Your email address will not be published. Required fields are marked *

This site uses Akismet to reduce spam. Learn how your comment data is processed.