Judas Priest – Redeemer of Souls (Deluxe Edition)




Artist: Judas Priest
Year: 2014
Genre: Metal
Notes: Discogs
Add. Notes: Deluxe Edition
Cover incl.: Yes
Encoder: FLAC
Bitrate: ~800 kBit/s (44.1 kHz/16 Bit/s)
Log & Cue incl.: Yes
Size: 520,2 MB
Password: “slam” (without ” “)


All Downloads/Hosters are compatible

Download 1
Turbobit.net
Rapidgator.net
KatFile.com
UploadRar.com
Download 2
Turbobit.net
Rapidgator.net
KatFile.com
UploadRar.com

Tracklist:

1-1 - Dragonaught - 4:27
1-2 - Redeemer Of Souls - 3:59
1-3 - Halls Of Valhalla - 6:04
1-4 - Sword Of Damocles - 4:55
1-5 - March Of The Damned - 3:56
1-6 - Down In Flames - 3:55
1-7 - Hell & Back - 4:46
1-8 - Cold Blooded - 5:25
1-9 - Metalizer - 4:38
1-10 - Crossfire - 3:51
1-11 - Secrets Of The Dead - 5:41
1-12 - Battle Cry - 5:18
1-13 - Beginning Of The End - 5:08
2-1 - Snakebite - 3:15
2-2 - Tears Of Blood - 4:19
2-3 - Creatures - 4:26
2-4 - Bring It On - 3:18
2-5 - Never Forget - 6:25

EAC-Log, CUE-Sheed & NFO:

Click to open spoiler
REM COMMENT “Declipped, decompressed, equalized version”
REM GENRE “Heavy Metal”
REM DATE 2014
REM COMMENT “Released: 14 Jul 2014”
REM LABEL “Sony Records Int’l ‎– SICP 30616~7”
REM FORMAT “2 × CD, Album”
PERFORMER “Judas Priest”
TITLE “Redeemer of Souls”
FILE “01. Dragonaught.flac” WAVE
TRACK 01 AUDIO
PERFORMER “Judas Priest”
TITLE “Dragonaught”
INDEX 01 00:00:00
FILE “02. Redeemer of Souls.flac” WAVE
TRACK 02 AUDIO
PERFORMER “Judas Priest”
TITLE “Redeemer of Souls”
INDEX 01 00:00:00
FILE “03. Halls of Valhalla.flac” WAVE
TRACK 03 AUDIO
PERFORMER “Judas Priest”
TITLE “Halls of Valhalla”
INDEX 01 00:00:00
FILE “04. Sword of Damocles.flac” WAVE
TRACK 04 AUDIO
PERFORMER “Judas Priest”
TITLE “Sword of Damocles”
INDEX 01 00:00:00
FILE “05. March of the Damned.flac” WAVE
TRACK 05 AUDIO
PERFORMER “Judas Priest”
TITLE “March of the Damned”
INDEX 01 00:00:00
FILE “06. Down in Flames.flac” WAVE
TRACK 06 AUDIO
PERFORMER “Judas Priest”
TITLE “Down in Flames”
INDEX 01 00:00:00
FILE “07. Hell & Back.flac” WAVE
TRACK 07 AUDIO
PERFORMER “Judas Priest”
TITLE “Hell & Back”
INDEX 01 00:00:00
FILE “08. Cold Blooded.flac” WAVE
TRACK 08 AUDIO
PERFORMER “Judas Priest”
TITLE “Cold Blooded”
INDEX 01 00:00:00
FILE “09. Metalizer.flac” WAVE
TRACK 09 AUDIO
PERFORMER “Judas Priest”
TITLE “Metalizer”
INDEX 01 00:00:00
FILE “10. Crossfire.flac” WAVE
TRACK 10 AUDIO
PERFORMER “Judas Priest”
TITLE “Crossfire”
INDEX 01 00:00:00
FILE “11. Secrets of the Dead.flac” WAVE
TRACK 11 AUDIO
PERFORMER “Judas Priest”
TITLE “Secrets of the Dead”
INDEX 01 00:00:00
FILE “12. Battle Cry.flac” WAVE
TRACK 12 AUDIO
PERFORMER “Judas Priest”
TITLE “Battle Cry”
INDEX 01 00:00:00
FILE “13. Beginning of the End.flac” WAVE
TRACK 13 AUDIO
PERFORMER “Judas Priest”
TITLE “Beginning of the End”
INDEX 01 00:00:00
FILE “14. Snakebite [bonus track].flac” WAVE
TRACK 14 AUDIO
PERFORMER “Judas Priest”
TITLE “Snakebite [bonus track]”
INDEX 01 00:00:00
FILE “15. Tears of Blood [bonus track].flac” WAVE
TRACK 15 AUDIO
PERFORMER “Judas Priest”
TITLE “Tears of Blood [bonus track]”
INDEX 01 00:00:00
FILE “16. Creatures [bonus track].flac” WAVE
TRACK 16 AUDIO
PERFORMER “Judas Priest”
TITLE “Creatures [bonus track]”
INDEX 01 00:00:00
FILE “17. Bring It On [bonus track].flac” WAVE
TRACK 17 AUDIO
PERFORMER “Judas Priest”
TITLE “Bring It On [bonus track]”
INDEX 01 00:00:00
FILE “18. Never Forget [bonus track].flac” WAVE
TRACK 18 AUDIO
PERFORMER “Judas Priest”
TITLE “Never Forget [bonus track]”
INDEX 01 00:00:00

Leave a Reply

Your email address will not be published. Required fields are marked *

Enter the text from the image below
 

This site uses Akismet to reduce spam. Learn how your comment data is processed.