Judas Priest – Painkiller (Remastered)




[Total: 0    Average: 0/5]

Artist: Judas Priest
Year: 1990/2002
Genre: Metal
Notes: Discogs
Add. Notes: Remastered
Cover incl.: Yes
Encoder: FLAC
Bitrate: ~900 kBit/s (44.1 kHz/16 Bit/s)
Log & Cue incl.: Yes
Size: 368,09 MB
Password: “slam” (without ” “)


All Downloads/Hosters are compatible

Download 1
Share-online.biz
KatFile.com
Rapidgator.net
Download 2
Share-online.biz
KatFile.com
Rapidgator.net

Tracklist:

1 - Painkiller - 6:06
2 - Hell Patrol - 3:37
3 - All Guns Blazing - 3:57
4 - Leather Rebel - 3:35
5 - Metal Meltdown - 4:50
6 - Night Crawler - 5:45
7 - Between The Hammer & The Anvil - 4:49
8 - A Touch Of Evil - 5:44
9 - Battle Hymn - 0:56
10 - One Shot At Glory - 6:48
Bonus Tracks
11 - Living Bad Dreams - 5:22
12 - Leather Rebel (Live) - 3:40

EAC-Log, CUE-Sheed & NFO:

Click to open spoiler
REM COMMENT “Restored, equalized version”
REM GENRE “Heavy Metal”
REM DATE 1990
REM COMMENT “Released: 03 Sep 1990”
REM LABEL “CBS ‎– 467290 2”
REM FORMAT “CD, Album”
PERFORMER “Judas Priest”
TITLE “Painkiller”
FILE “01. Painkiller.flac” WAVE
TRACK 01 AUDIO
PERFORMER “Judas Priest”
TITLE “Painkiller”
INDEX 01 00:00:00
FILE “02. Hell Patrol.flac” WAVE
TRACK 02 AUDIO
PERFORMER “Judas Priest”
TITLE “Hell Patrol”
INDEX 01 00:00:00
FILE “03. All Guns Blazing.flac” WAVE
TRACK 03 AUDIO
PERFORMER “Judas Priest”
TITLE “All Guns Blazing”
INDEX 01 00:00:00
FILE “04. Leather Rebel.flac” WAVE
TRACK 04 AUDIO
PERFORMER “Judas Priest”
TITLE “Leather Rebel”
INDEX 01 00:00:00
FILE “05. Metal Meltdown.flac” WAVE
TRACK 05 AUDIO
PERFORMER “Judas Priest”
TITLE “Metal Meltdown”
INDEX 01 00:00:00
FILE “06. Night Crawler.flac” WAVE
TRACK 06 AUDIO
PERFORMER “Judas Priest”
TITLE “Night Crawler”
INDEX 01 00:00:00
FILE “07. Between the Hammer & the Anvil.flac” WAVE
TRACK 07 AUDIO
PERFORMER “Judas Priest”
TITLE “Between the Hammer & the Anvil”
INDEX 01 00:00:00
FILE “08. A Touch of Evil.flac” WAVE
TRACK 08 AUDIO
PERFORMER “Judas Priest”
TITLE “A Touch of Evil”
INDEX 01 00:00:00
FILE “09. Battle Hymn.flac” WAVE
TRACK 09 AUDIO
PERFORMER “Judas Priest”
TITLE “Battle Hymn”
INDEX 01 00:00:00
FILE “10. One Shot at Glory.flac” WAVE
TRACK 10 AUDIO
PERFORMER “Judas Priest”
TITLE “One Shot at Glory”
INDEX 01 00:00:00
FILE “11. Living Bad Dreams [bonus track].flac” WAVE
TRACK 11 AUDIO
PERFORMER “Judas Priest”
TITLE “Living Bad Dreams [bonus track]”
INDEX 01 00:00:00
FILE “12. Leather Rebel [live] [bonus track].flac” WAVE
TRACK 12 AUDIO
PERFORMER “Judas Priest”
TITLE “Leather Rebel [live] [bonus track]”
INDEX 01 00:00:00

Spread the Download

Leave a Reply

Your email address will not be published. Required fields are marked *

Enter the text from the image below
 

This site uses Akismet to reduce spam. Learn how your comment data is processed.