Judas Priest – Killing Machine (Remastered; Japanese Edition)




No Cover available

Artist: Judas Priest
Year: 2012
Genre: Metal
Notes: Discogs
Add. Notes: Remastered;Japanese Edition
Watch Songs on: YouTube
Cover incl.: Yes
Encoder: FLAC
Bitrate: ~900 kBit/s (44.1 kHz/16 Bit/s)
Log & Cue incl.: Yes/Yes
Size: 501 MB
Password: “slam” (without ” “)


All Downloads/Hosters are compatible

Download 1
KatFile.com
Turbobit.net
Rapidgator.net
FileFactory.com
Download 2
KatFile.com
Turbobit.net
Rapidgator.net
FileFactory.com

Tracklist:

1 - Delivering The Goods - 4:16
2 - Rock Forever - 3:19
3 - Evening Star - 4:06
4 - Hell Bent For Leather - 2:40
5 - Take On The World - 3:01
6 - Burnin' Up - 4:06
7 - The Green Manalishi (With The Two-Pronged Crown) - 
3:22
8 - Killing Machine - 3:01
9 - Running Wild - 2:57
10 - Before The Dawn - 3:23
11 - Evil Fantasies - 4:13

EAC-Log, CUE-Sheed & NFO:

Click to open spoiler
Exact Audio Copy V1.0 beta 3 from 29. August 2011

EAC extraction logfile from 10. March 2012, 20:26

Judas Priest / Killing Machine

Used drive : HL-DT-STDVDRAM GSA-H60N Adapter: 2 ID: 0

Read mode : Secure
Utilize accurate stream : Yes
Defeat audio cache : Yes
Make use of C2 pointers : No

Read offset correction : 667
Overread into Lead-In and Lead-Out : No
Fill up missing offset samples with silence : Yes
Delete leading and trailing silent blocks : No
Null samples used in CRC calculations : Yes
Used interface : Native Win32 interface for Win NT & 2000

Used output format : Internal WAV Routines
Sample format : 44.100 Hz; 16 Bit; Stereo

TOC of the extracted CD

Track | Start | Length | Start sector | End sector
———————————————————
1 | 0:00.00 | 4:16.42 | 0 | 19241
2 | 4:16.42 | 3:19.65 | 19242 | 34231
3 | 7:36.32 | 4:06.56 | 34232 | 52737
4 | 11:43.13 | 2:41.28 | 52738 | 64840
5 | 14:24.41 | 3:01.50 | 64841 | 78465
6 | 17:26.16 | 4:06.58 | 78466 | 96973
7 | 21:32.74 | 3:23.48 | 96974 | 112246
8 | 24:56.47 | 3:02.08 | 112247 | 125904
9 | 27:58.55 | 2:58.47 | 125905 | 139301
10 | 30:57.27 | 3:23.20 | 139302 | 154546
11 | 34:20.47 | 4:15.26 | 154547 | 173697
12 | 38:35.73 | 4:06.03 | 173698 | 192150
13 | 42:42.01 | 3:15.50 | 192151 | 206825

Range status and errors

Selected range

Filename C:\Documents and Settings\Admin\Рабочий стол\Lossless Galaxy Rip by ALLexxess\Judas Priest\1978 Killing Machine (Sony Music Japan 2012)\Judas Priest – Killing Machine.wav

Peak level 100.0 %
Extraction speed 5.8 X
Range quality 100.0 %
Test CRC 1BF9417A
Copy CRC 1BF9417A
Copy OK

No errors occurred

AccurateRip summary

Track 1 not present in database
Track 2 not present in database
Track 3 not present in database
Track 4 not present in database
Track 5 not present in database
Track 6 not present in database
Track 7 not present in database
Track 8 not present in database
Track 9 not present in database
Track 10 not present in database
Track 11 not present in database
Track 12 not present in database
Track 13 not present in database

None of the tracks are present in the AccurateRip database

End of status report

==== Log checksum F60AF45113A0A2CD9D4C9425C987A872273969B8E3C8A023D0CCB88F6AD285F6 ====

REM GENRE “Heavy Metal / Hard Rock”
REM DATE 1978
REM DISCID C30AC50D
REM COMMENT “ExactAudioCopy v1.0b3”
PERFORMER “Judas Priest”
TITLE “Killing Machine (2012, Sony SICP 3394, Japan)”
FILE “Judas Priest – Killing Machine.flac” WAVE
TRACK 01 AUDIO
TITLE “Delivering The Goods”
PERFORMER “Judas Priest”
ISRC GBBBN0102360
INDEX 01 00:00:00
TRACK 02 AUDIO
TITLE “Rock Forever”
PERFORMER “Judas Priest”
ISRC GBBBN0102361
INDEX 01 04:16:42
TRACK 03 AUDIO
TITLE “Evening Star”
PERFORMER “Judas Priest”
ISRC GBBBN0102362
INDEX 01 07:36:32
TRACK 04 AUDIO
TITLE “Hell Bent For Leather”
PERFORMER “Judas Priest”
ISRC GBBBN0102363
INDEX 01 11:43:13
TRACK 05 AUDIO
TITLE “Take On The World”
PERFORMER “Judas Priest”
ISRC GBBBN0102364
INDEX 01 14:24:41
TRACK 06 AUDIO
TITLE “Burnin’ Up”
PERFORMER “Judas Priest”
ISRC GBBBN0102365
INDEX 01 17:26:16
TRACK 07 AUDIO
TITLE “The Green Manalishi (With The Two-Pronged Crown) (Fleetwood Mac Cover)”
PERFORMER “Judas Priest”
ISRC GBBBN0102338
INDEX 01 21:32:74
TRACK 08 AUDIO
TITLE “Killing Machine”
PERFORMER “Judas Priest”
ISRC GBBBN0102366
INDEX 01 24:56:47
TRACK 09 AUDIO
TITLE “Running Wild”
PERFORMER “Judas Priest”
ISRC GBBBN0102367
INDEX 01 27:58:55
TRACK 10 AUDIO
TITLE “Before The Dawn”
PERFORMER “Judas Priest”
ISRC GBBBN0102368
INDEX 01 30:57:27
TRACK 11 AUDIO
TITLE “Evil Fantasies”
PERFORMER “Judas Priest”
ISRC GBBBN0102369
INDEX 01 34:20:47
TRACK 12 AUDIO
TITLE “Fight For Your Life (Bonus Track)”
PERFORMER “Judas Priest”
ISRC GBBBN0102340
INDEX 01 38:35:73
TRACK 13 AUDIO
TITLE “Riding On The Wind (Live – Bonus Track)”
PERFORMER “Judas Priest”
ISRC GBBBN0102339
INDEX 00 42:40:16
INDEX 01 42:42:01


Leave a Reply

Your email address will not be published. Required fields are marked *

This site uses Akismet to reduce spam. Learn how your comment data is processed.