Judas Priest – Jugulator (Japanese Edition)




Artist: Judas Priest
Year: 1997
Genre: Metal
Notes: Discogs
Add. Notes: Japanese Edition
Encoder: FLAC
Bitrate: ~900 kBit/s (VBR)
Size: 545,72 MB
Password: “slam” (without ” “)


Tracklist:

1 - Jugulator - 5:50
2 - Blood Stained - 5:26
3 - Dead Meat - 4:43
4 - Death Row - 5:03
5 - Decapitate - 4:39
6 - Burn In Hell - 6:41
7 - Brain Dead - 5:23
8 - Abductors - 5:49
9 - Bullet Train - 5:10
10 - Cathedral Spires - 9:17

EAC-Log, CUE-Sheed & NFO:

Click to open spoiler
Exact Audio Copy V1.0 beta 3 from 29. August 2011

EAC extraction logfile from 25. September 2014, 22:23

Judas Priest / Jugulator (XRCN-2001)

Used drive : ASUS BW-12D1S-U Adapter: 1 ID: 0

Read mode : Secure
Utilize accurate stream : Yes
Defeat audio cache : Yes
Make use of C2 pointers : No

Read offset correction : 667
Overread into Lead-In and Lead-Out : No
Fill up missing offset samples with silence : Yes
Delete leading and trailing silent blocks : No
Null samples used in CRC calculations : Yes
Used interface : Native Win32 interface for Win NT & 2000

Used output format : User Defined Encoder
Selected bitrate : 1024 kBit/s
Quality : High
Add ID3 tag : No
Command line compressor : C:\Program Files (x86)\FLAC\flac.exe
Additional command line options : -V -8 -T “Date=%year%” -T “Genre=%genre%” %source%

TOC of the extracted CD

Track | Start | Length | Start sector | End sector
———————————————————
1 | 0:00.00 | 5:51.52 | 0 | 26376
2 | 5:51.52 | 5:26.53 | 26377 | 50879
3 | 11:18.30 | 4:44.45 | 50880 | 72224
4 | 16:03.00 | 5:04.05 | 72225 | 95029
5 | 21:07.05 | 4:39.50 | 95030 | 116004
6 | 25:46.55 | 6:42.37 | 116005 | 146191
7 | 32:29.17 | 5:24.28 | 146192 | 170519
8 | 37:53.45 | 5:49.72 | 170520 | 196766
9 | 43:43.42 | 5:11.18 | 196767 | 220109
10 | 48:54.60 | 9:18.32 | 220110 | 261991

Range status and errors

Selected range

Filename D:\Ripped By liveevil\Judas Priest – Jugulator (XRCN-2001).wav

Peak level 100.0 %
Extraction speed 7.3 X
Range quality 100.0 %
Test CRC 47D7FF22
Copy CRC 47D7FF22
Copy OK

No errors occurred

AccurateRip summary

Track 1 accurately ripped (confidence 11) [31D65EC1] (AR v2)
Track 2 accurately ripped (confidence 11) [D594170F] (AR v2)
Track 3 accurately ripped (confidence 11) [D1248886] (AR v2)
Track 4 accurately ripped (confidence 11) [C0D66372] (AR v2)
Track 5 accurately ripped (confidence 11) [C5151898] (AR v2)
Track 6 accurately ripped (confidence 11) [02E187F0] (AR v2)
Track 7 accurately ripped (confidence 11) [B9287968] (AR v2)
Track 8 accurately ripped (confidence 11) [5CE4F196] (AR v2)
Track 9 accurately ripped (confidence 11) [A4E4F574] (AR v2)
Track 10 accurately ripped (confidence 11) [D7EEC357] (AR v2)

All tracks accurately ripped

End of status report

==== Log checksum CE3E94780A79FD127AA76F56A5C43491FC06E52AC98B95190DD5FFB1BD8E7B63 ====

REM GENRE “Heavy Metal”
REM DATE 1997
REM DISCID 960DA50A
REM COMMENT “ExactAudioCopy v1.0b3”
PERFORMER “Judas Priest”
TITLE “Jugulator (1997, Zero / Toshiba, XRCN-2001, Japan)”
FILE “Judas Priest – Jugulator (XRCN-2001).flac” WAVE
TRACK 01 AUDIO
TITLE “Jugulator”
PERFORMER “Judas Priest”
INDEX 01 00:00:00
TRACK 02 AUDIO
TITLE “Blood Stained”
PERFORMER “Judas Priest”
INDEX 01 05:51:52
TRACK 03 AUDIO
TITLE “Dead Meat”
PERFORMER “Judas Priest”
INDEX 01 11:18:30
TRACK 04 AUDIO
TITLE “Death Row”
PERFORMER “Judas Priest”
INDEX 01 16:03:00
TRACK 05 AUDIO
TITLE “Decapitate”
PERFORMER “Judas Priest”
INDEX 01 21:07:05
TRACK 06 AUDIO
TITLE “Burn in Hell”
PERFORMER “Judas Priest”
INDEX 01 25:46:55
TRACK 07 AUDIO
TITLE “Brain Dead”
PERFORMER “Judas Priest”
INDEX 01 32:29:17
TRACK 08 AUDIO
TITLE “Abductors”
PERFORMER “Judas Priest”
INDEX 01 37:53:45
TRACK 09 AUDIO
TITLE “Bullet Train”
PERFORMER “Judas Priest”
INDEX 01 43:43:42
TRACK 10 AUDIO
TITLE “Cathedral Spires”
PERFORMER “Judas Priest”
INDEX 01 48:54:60

Leave a Reply

Your email address will not be published. Required fields are marked *

This site uses Akismet to reduce spam. Learn how your comment data is processed.