Judas Priest – Jugulator




Artist: Judas Priest
Year: 1997
Genre: Metal
Notes: Discogs
Add. Notes:
Cover incl.: Yes
Encoder: FLAC
Bitrate: ~800 kBit/s (44.1 kHz/16 Bit/s)
Log & Cue incl.: Yes
Size: 355,8 MB
Password: “slam” (without ” “)


All Downloads/Hosters are compatible

Download 1
KatFile.com
Turbobit.net
Rapidgator.net
UploadRive.com
Usersdrive.com
Download 2
KatFile.com
Turbobit.net
Rapidgator.net
UploadRive.com
Usersdrive.com

Tracklist:

1 - Jugulator - 5:50
2 - Blood Stained - 5:26
3 - Dead Meat - 4:43
4 - Death Row - 5:03
5 - Decapitate - 4:39
6 - Burn In Hell - 6:41
7 - Brain Dead - 5:23
8 - Abductors - 5:49
9 - Bullet Train - 5:10
10 - Cathedral Spires - 9:17

EAC-Log, CUE-Sheed & NFO:

Click to open spoiler
REM COMMENT “Declipped, equalized version”
REM GENRE “Heavy Metal, Thrash Metal, Groove Metal”
REM DATE 1997
REM COMMENT “Released: 28 Oct 1997”
REM LABEL “Steamhammer ‎– SPV 085-18782”
REM FORMAT “CD, Album”
PERFORMER “Judas Priest”
TITLE “Jugulator”
FILE “01. Jugulator.flac” WAVE
TRACK 01 AUDIO
PERFORMER “Judas Priest”
TITLE “Jugulator”
INDEX 01 00:00:00
FILE “02. Blood Stained.flac” WAVE
TRACK 02 AUDIO
PERFORMER “Judas Priest”
TITLE “Blood Stained”
INDEX 01 00:00:00
FILE “03. Dead Meat.flac” WAVE
TRACK 03 AUDIO
PERFORMER “Judas Priest”
TITLE “Dead Meat”
INDEX 01 00:00:00
FILE “04. Death Row.flac” WAVE
TRACK 04 AUDIO
PERFORMER “Judas Priest”
TITLE “Death Row”
INDEX 01 00:00:00
FILE “05. Decapitate.flac” WAVE
TRACK 05 AUDIO
PERFORMER “Judas Priest”
TITLE “Decapitate”
INDEX 01 00:00:00
FILE “06. Burn in Hell.flac” WAVE
TRACK 06 AUDIO
PERFORMER “Judas Priest”
TITLE “Burn in Hell”
INDEX 01 00:00:00
FILE “07. Brain Dead.flac” WAVE
TRACK 07 AUDIO
PERFORMER “Judas Priest”
TITLE “Brain Dead”
INDEX 01 00:00:00
FILE “08. Abductors.flac” WAVE
TRACK 08 AUDIO
PERFORMER “Judas Priest”
TITLE “Abductors”
INDEX 01 00:00:00
FILE “09. Bullet Train.flac” WAVE
TRACK 09 AUDIO
PERFORMER “Judas Priest”
TITLE “Bullet Train”
INDEX 01 00:00:00
FILE “10. Cathedral Spires.flac” WAVE
TRACK 10 AUDIO
PERFORMER “Judas Priest”
TITLE “Cathedral Spires”
INDEX 01 00:00:00

Leave a Reply

Your email address will not be published. Required fields are marked *

This site uses Akismet to reduce spam. Learn how your comment data is processed.