Judas Priest – Firepower




Artist: Judas Priest
Year: 2018
Genre: Metal
Notes: Discogs
Add. Notes:
Cover incl.: No
Encoder: FLAC
Bitrate: ~900 kBit/s (44.1 kHz/16 Bit/s)
Log & Cue incl.: No, but seperate Tracks
Size: 381,47 MB
Password: “slam” (without ” “)


All Downloads/Hosters are compatible

Download 1
Turbobit.net
Rapidgator.net
KatFile.com
UploadRar.com
Download 2
Turbobit.net
Rapidgator.net
KatFile.com
UploadRar.com

Tracklist:

1 - Firepower - 3:29
2 - Lightning Strike - 3:29
3 - Evil Never Dies - 4:23
4 - Never The Heroes - 4:24
5 - Necromancer - 3:33
6 - Children Of The Sun - 4:00
7 - Guardians - 1:06
8 - Rising From Ruins - 5:23
9 - Flame Thrower - 4:34
10 - Spectre - 4:26
11 - Traitors Gate - 5:43
12 - No Surrender - 2:54
13 - Lone Wolf - 5:09
14 - Sea Of Red - 5:52

EAC-Log, CUE-Sheed & NFO:

Click to open spoiler
REM COMMENT “Declipped, decompressed version”
REM GENRE “Heavy Metal”
REM DATE 2018
REM COMMENT “Released: 07 Mar 2018”
REM LABEL “Columbia”
REM FORMAT “Web, Album”
PERFORMER “Judas Priest”
TITLE “Firepower”
FILE “01. Firepower.flac” WAVE
TRACK 01 AUDIO
PERFORMER “Judas Priest”
TITLE “Firepower”
INDEX 01 00:00:00
FILE “02. Lightning Strike.flac” WAVE
TRACK 02 AUDIO
PERFORMER “Judas Priest”
TITLE “Lightning Strike”
INDEX 01 00:00:00
FILE “03. Evil Never Dies.flac” WAVE
TRACK 03 AUDIO
PERFORMER “Judas Priest”
TITLE “Evil Never Dies”
INDEX 01 00:00:00
FILE “04. Never the Heroes.flac” WAVE
TRACK 04 AUDIO
PERFORMER “Judas Priest”
TITLE “Never the Heroes”
INDEX 01 00:00:00
FILE “05. Necromancer.flac” WAVE
TRACK 05 AUDIO
PERFORMER “Judas Priest”
TITLE “Necromancer”
INDEX 01 00:00:00
FILE “06. Children of the Sun.flac” WAVE
TRACK 06 AUDIO
PERFORMER “Judas Priest”
TITLE “Children of the Sun”
INDEX 01 00:00:00
FILE “07. Guardians.flac” WAVE
TRACK 07 AUDIO
PERFORMER “Judas Priest”
TITLE “Guardians”
INDEX 01 00:00:00
FILE “08. Rising from Ruins.flac” WAVE
TRACK 08 AUDIO
PERFORMER “Judas Priest”
TITLE “Rising from Ruins”
INDEX 01 00:00:00
FILE “09. Flame Thrower.flac” WAVE
TRACK 09 AUDIO
PERFORMER “Judas Priest”
TITLE “Flame Thrower”
INDEX 01 00:00:00
FILE “10. Spectre.flac” WAVE
TRACK 10 AUDIO
PERFORMER “Judas Priest”
TITLE “Spectre”
INDEX 01 00:00:00
FILE “11. Traitors Gate.flac” WAVE
TRACK 11 AUDIO
PERFORMER “Judas Priest”
TITLE “Traitors Gate”
INDEX 01 00:00:00
FILE “12. No Surrender.flac” WAVE
TRACK 12 AUDIO
PERFORMER “Judas Priest”
TITLE “No Surrender”
INDEX 01 00:00:00
FILE “13. Lone Wolf.flac” WAVE
TRACK 13 AUDIO
PERFORMER “Judas Priest”
TITLE “Lone Wolf”
INDEX 01 00:00:00
FILE “14. Sea of Red.flac” WAVE
TRACK 14 AUDIO
PERFORMER “Judas Priest”
TITLE “Sea of Red”
INDEX 01 00:00:00

Leave a Reply

Your email address will not be published. Required fields are marked *

Enter the text from the image below
 

This site uses Akismet to reduce spam. Learn how your comment data is processed.