Judas Priest – Demolition (Ltd. Edition)




[Total: 0    Average: 0/5]

Artist: Judas Priest
Year: 2001
Genre: Metal
Notes: Discogs
Add. Notes: Ltd. Edition
Encoder: FLAC
Bitrate: ~1000 kBit/s (VBR)
Size: 680,85 MB
Password: “slam” (without ” “)


Tracklist:

1 - Machine Man - 5:35
2 - One On One - 6:44
3 - Hell Is Home - 6:18
4 - Jekyll And Hyde - 3:19
5 - Close To You - 4:28
6 - Devil Digger - 4:45
7 - Bloodsuckers - 6:18
8 - In Between - 5:41
9 - Feed On Me - 5:28
10 - Subterfuge - 5:12
11 - Lost And Found - 4:57
12 - Cyberface - 6:45
13 - Metal Messiah - 5:14
Bonus Tracks
14 - Rapid Fire
15 - The Green Manalishi (With The Two Pronged Crown)

EAC-Log, CUE-Sheed & NFO:

Click to open spoiler
Exact Audio Copy V1.0 beta 3 from 29. August 2011

EAC extraction logfile from 21. September 2014, 17:04

Judas Priest / Demolition (SPV 088-72420 CD Ltd)

Used drive : ASUS BW-12D1S-U Adapter: 1 ID: 0

Read mode : Secure
Utilize accurate stream : Yes
Defeat audio cache : Yes
Make use of C2 pointers : No

Read offset correction : 667
Overread into Lead-In and Lead-Out : No
Fill up missing offset samples with silence : Yes
Delete leading and trailing silent blocks : No
Null samples used in CRC calculations : Yes
Used interface : Native Win32 interface for Win NT & 2000

Used output format : User Defined Encoder
Selected bitrate : 1024 kBit/s
Quality : High
Add ID3 tag : No
Command line compressor : C:\Program Files (x86)\FLAC\flac.exe
Additional command line options : -V -8 -T “Date=%year%” -T “Genre=%genre%” %source%

TOC of the extracted CD

Track | Start | Length | Start sector | End sector
———————————————————
1 | 0:00.00 | 5:35.70 | 0 | 25194
2 | 5:35.70 | 6:44.25 | 25195 | 55519
3 | 12:20.20 | 6:18.42 | 55520 | 83911
4 | 18:38.62 | 3:19.55 | 83912 | 98891
5 | 21:58.42 | 4:28.25 | 98892 | 119016
6 | 26:26.67 | 4:45.25 | 119017 | 140416
7 | 31:12.17 | 6:18.28 | 140417 | 168794
8 | 37:30.45 | 5:41.12 | 168795 | 194381
9 | 43:11.57 | 5:28.48 | 194382 | 219029
10 | 48:40.30 | 5:12.50 | 219030 | 242479
11 | 53:53.05 | 4:57.55 | 242480 | 264809
12 | 58:50.60 | 6:45.35 | 264810 | 295219
13 | 65:36.20 | 5:13.42 | 295220 | 318736
14 | 70:49.62 | 3:54.10 | 318737 | 336296
15 | 74:43.72 | 4:10.15 | 336297 | 355061

Range status and errors

Selected range

Filename D:\Ripped By liveevil\Judas Priest – Demolition (SPV 088-72420 CD Ltd).wav

Peak level 98.8 %
Extraction speed 8.3 X
Range quality 100.0 %
Test CRC 77611D02
Copy CRC 77611D02
Copy OK

No errors occurred

AccurateRip summary

Track 1 accurately ripped (confidence 22) [07CDF99F] (AR v2)
Track 2 accurately ripped (confidence 22) [AC4C3AF0] (AR v2)
Track 3 accurately ripped (confidence 22) [40C5D054] (AR v2)
Track 4 accurately ripped (confidence 22) [192C1173] (AR v2)
Track 5 accurately ripped (confidence 22) [47B32AA0] (AR v2)
Track 6 accurately ripped (confidence 22) [564B650A] (AR v2)
Track 7 accurately ripped (confidence 22) [1BC0A05C] (AR v2)
Track 8 accurately ripped (confidence 22) [F88EF804] (AR v2)
Track 9 accurately ripped (confidence 22) [0D0F78FA] (AR v2)
Track 10 accurately ripped (confidence 21) [311E4B45] (AR v2)
Track 11 accurately ripped (confidence 22) [563E4205] (AR v2)
Track 12 accurately ripped (confidence 22) [827497C3] (AR v2)
Track 13 accurately ripped (confidence 22) [4E7DBC14] (AR v2)
Track 14 accurately ripped (confidence 22) [BFB48557] (AR v2)
Track 15 accurately ripped (confidence 22) [6D4BB2C2] (AR v2)

All tracks accurately ripped

End of status report

==== Log checksum E1B79F39A70A29B0345A0C3EAEE190A57B6BEE638C1A401DF7F7180EA1D419D3 ====

REM GENRE “Heavy Metal”
REM DATE 2001
REM DISCID CF127E0F
REM COMMENT “ExactAudioCopy v1.0b3”
PERFORMER “Judas Priest”
TITLE “Demolition (2001, SPV, SPV 088-72420 CD Ltd, Germany)”
FILE “Judas Priest – Demolition (SPV 088-72420 CD Ltd).flac” WAVE
TRACK 01 AUDIO
TITLE “Machine Man”
PERFORMER “Judas Priest”
INDEX 01 00:00:00
TRACK 02 AUDIO
TITLE “One On One”
PERFORMER “Judas Priest”
INDEX 01 05:35:70
TRACK 03 AUDIO
TITLE “Hell Is Home”
PERFORMER “Judas Priest”
INDEX 00 12:18:16
INDEX 01 12:20:20
TRACK 04 AUDIO
TITLE “Jekyll And Hyde”
PERFORMER “Judas Priest”
INDEX 00 18:38:52
INDEX 01 18:38:62
TRACK 05 AUDIO
TITLE “Close To You”
PERFORMER “Judas Priest”
INDEX 01 21:58:42
TRACK 06 AUDIO
TITLE “Devil Digger”
PERFORMER “Judas Priest”
INDEX 01 26:26:67
TRACK 07 AUDIO
TITLE “Bloodsuckers”
PERFORMER “Judas Priest”
INDEX 01 31:12:17
TRACK 08 AUDIO
TITLE “In Between”
PERFORMER “Judas Priest”
INDEX 01 37:30:45
TRACK 09 AUDIO
TITLE “Feed On Me”
PERFORMER “Judas Priest”
INDEX 01 43:11:57
TRACK 10 AUDIO
TITLE “Subterfuge”
PERFORMER “Judas Priest”
INDEX 00 48:40:27
INDEX 01 48:40:30
TRACK 11 AUDIO
TITLE “Lost And Found”
PERFORMER “Judas Priest”
INDEX 00 53:52:17
INDEX 01 53:53:05
TRACK 12 AUDIO
TITLE “Cyberface”
PERFORMER “Judas Priest”
INDEX 01 58:50:60
TRACK 13 AUDIO
TITLE “Metal Messiah”
PERFORMER “Judas Priest”
INDEX 01 65:36:20
TRACK 14 AUDIO
TITLE “Rapid Fire (Live) (Bonus Track)”
PERFORMER “Judas Priest”
INDEX 00 70:49:36
INDEX 01 70:49:62
TRACK 15 AUDIO
TITLE “The Green Manalishi (With The Two Pronged Crown) (Live – Bonus Track)”
PERFORMER “Judas Priest”
INDEX 01 74:43:72

Spread the Download

Leave a Reply

Your email address will not be published. Required fields are marked *

Enter the text from the image below
 

This site uses Akismet to reduce spam. Learn how your comment data is processed.