Judas Priest – Demolition (Limited Edition)




Artist: Judas Priest
Year: 2001
Genre: Metal
Notes: Discogs
Add. Notes: Limited Edition
Cover incl.: Yes
Encoder: FLAC
Bitrate: ~900 kBit/s (44.1 kHz/16 Bit/s)
Log & Cue incl.: Yes
Size: 547,22 MB
Password: “slam” (without ” “)


All Downloads/Hosters are compatible

Download 1
NitroFlare.com
KatFile.com
Turbobit.net
Rapidgator.net
UploadRar.com
Download 2
NitroFlare.com
KatFile.com
Turbobit.net
Rapidgator.net
UploadRar.com

Tracklist:

1 - Machine Man - 5:35
2 - One On One - 6:44
3 - Hell Is Home - 6:19
4 - Jekyll And Hyde - 3:20
5 - Close To You - 4:28
6 - Devil Digger - 4:45
7 - Bloodsuckers - 6:19
8 - In Between - 5:41
9 - Feed On Me - 5:29
10 - Subterfuge - 5:13
11 - Lost And Found - 4:57
12 - Cyberface - 6:46
13 - Metal Messiah - 5:15
Bonus
14 - What's My Name - 3:46
15 - The Green Manalishi (With The Two Pronged 
Crown) (Live) - 4:11
16 - Rapid Fire (Live) - 4:02

EAC-Log, CUE-Sheed & NFO:

Click to open spoiler
REM COMMENT “Declipped, decompressed, equalized version”
REM GENRE “Heavy Metal, Nu Metal”
REM DATE 2001
REM COMMENT “Released: 23 Jul 2001”
REM LABEL “Steamhammer ‎– SPV 088-72420”
REM FORMAT “CD, Album”
PERFORMER “Judas Priest”
TITLE “Demolition”
FILE “01. Machine Man.flac” WAVE
TRACK 01 AUDIO
PERFORMER “Judas Priest”
TITLE “Machine Man”
INDEX 01 00:00:00
FILE “02. One on One.flac” WAVE
TRACK 02 AUDIO
PERFORMER “Judas Priest”
TITLE “One on One”
INDEX 01 00:00:00
FILE “03. Hell Is Home.flac” WAVE
TRACK 03 AUDIO
PERFORMER “Judas Priest”
TITLE “Hell Is Home”
INDEX 01 00:00:00
FILE “04. Jekyll and Hyde.flac” WAVE
TRACK 04 AUDIO
PERFORMER “Judas Priest”
TITLE “Jekyll and Hyde”
INDEX 01 00:00:00
FILE “05. Close to You.flac” WAVE
TRACK 05 AUDIO
PERFORMER “Judas Priest”
TITLE “Close to You”
INDEX 01 00:00:00
FILE “06. Devil Digger.flac” WAVE
TRACK 06 AUDIO
PERFORMER “Judas Priest”
TITLE “Devil Digger”
INDEX 01 00:00:00
FILE “07. Bloodsuckers.flac” WAVE
TRACK 07 AUDIO
PERFORMER “Judas Priest”
TITLE “Bloodsuckers”
INDEX 01 00:00:00
FILE “08. In Between.flac” WAVE
TRACK 08 AUDIO
PERFORMER “Judas Priest”
TITLE “In Between”
INDEX 01 00:00:00
FILE “09. Feed on Me.flac” WAVE
TRACK 09 AUDIO
PERFORMER “Judas Priest”
TITLE “Feed on Me”
INDEX 01 00:00:00
FILE “10. Subterfuge.flac” WAVE
TRACK 10 AUDIO
PERFORMER “Judas Priest”
TITLE “Subterfuge”
INDEX 01 00:00:00
FILE “11. Lost and Found.flac” WAVE
TRACK 11 AUDIO
PERFORMER “Judas Priest”
TITLE “Lost and Found”
INDEX 01 00:00:00
FILE “12. Cyberface.flac” WAVE
TRACK 12 AUDIO
PERFORMER “Judas Priest”
TITLE “Cyberface”
INDEX 01 00:00:00
FILE “13. Metal Messiah.flac” WAVE
TRACK 13 AUDIO
PERFORMER “Judas Priest”
TITLE “Metal Messiah”
INDEX 01 00:00:00
FILE “14. Rapid Fire [live] [bonus track].flac” WAVE
TRACK 14 AUDIO
PERFORMER “Judas Priest”
TITLE “Rapid Fire [live] [bonus track]”
INDEX 01 00:00:00
FILE “15. The Green Manalishi (With the Two Pronged Crown) [Fleetwood Mac cover] [live] [bonus track].flac” WAVE
TRACK 15 AUDIO
PERFORMER “Judas Priest”
TITLE “The Green Manalishi (With the Two Pronged Crown) [Fleetwood Mac cover] [live] [bonus track]”
INDEX 01 00:00:00
FILE “16. What’s My Name [bonus track].flac” WAVE
TRACK 16 AUDIO
PERFORMER “Judas Priest”
TITLE “What’s My Name [bonus track]”
INDEX 01 00:00:00

Leave a Reply

Your email address will not be published. Required fields are marked *

This site uses Akismet to reduce spam. Learn how your comment data is processed.