Judas Priest – Collections




Artist: Judas Priest
Year: 2008
Genre: Rock
Notes: Discogs
Add. Notes:
Encoder: FLAC
Bitrate: ~1000 kBit/s (VBR)
Size: 349,13 MB
Password: “slam” (without ” “)


Crypted via FileCrypt.cc:

.

Crypted via Relink.to:

Tracklist:

1 - Breaking The Law - 2:36
2 - Living After Midnight - 3:31
3 - Out In The Cold - 6:28
4 - Love Bites - 4:49
5 - Rock You All Around The World - 3:40
6 - Diamonds And Rust (Live) - 3:32
7 - Rock Hard Ride Free - 5:35
8 - Turbo Lover - 5:34
9 - Deal With The Devil - 3:56
10 - Worth Fighting For - 4:19

EAC-Log, CUE-Sheed & NFO:

Click to open spoiler
Exact Audio Copy V1.0 beta 3 from 29. August 2011

Отчёт EAC об извлечении, выполненном 5. сентября 2015, 14:27

Judas Priest / Collections

Дисковод: HL-DT-STDVDRAM GH24NSB0 Adapter: 0 ID: 1

Режим чтения : Достоверность
Использование точного потока : Да
Отключение кэша аудио : Нет
Использование указателей C2 : Нет

Коррекция смещения при чтении : 6
Способность читать области Lead-in и Lead-out : Нет
Заполнение пропущенных сэмплов тишиной : Да
Удаление блоков с тишиной в начале и конце : Нет
При вычислениях CRC использовались нулевые сэмплы : Да
Интерфейс : Встроенный Win32-интерфейс для Win NT/2000

Выходной формат : Пользовательский кодировщик
Выбранный битрейт : 768 kBit/s
Качество : Высокий
Добавление ID3-тега : Нет
Утилита сжатия : C:\Program Files (x86)\Exact Audio Copy\FLAC\FLAC.EXE
Дополнительные параметры : -6 -V -T “ARTIST=%artist%” -T “TITLE=%title%” -T “ALBUM=%albumtitle%” -T “DATE=%year%” -T “TRACKNUMBER=%tracknr%” -T “GENRE=%genre%” -T “COMMENT=%comment%” -T “BAND=%albuminterpret%” -T “ALBUMARTIST=%albuminterpret%” -T “COMPOSER=%composer%” %haslyrics%–tag-from-file=LYRICS=”%lyricsfile%”%haslyrics% -T “DISCNUMBER=%cdnumber%” -T “TOTALDISCS=%totalcds%” -T “TOTALTRACKS=%numtracks%” %hascover%–picture=”%coverfile%”%hascover% %source% -o %dest%

TOC извлечённого CD

Трек | Старт | Длительность | Начальный сектор | Конечный сектор
———————————————————————
1 | 0:00.00 | 2:36.05 | 0 | 11704
2 | 2:36.05 | 3:31.33 | 11705 | 27562
3 | 6:07.38 | 6:28.01 | 27563 | 56663
4 | 12:35.39 | 4:49.46 | 56664 | 78384
5 | 17:25.10 | 3:40.20 | 78385 | 94904
6 | 21:05.30 | 3:32.11 | 94905 | 110815
7 | 24:37.41 | 5:35.46 | 110816 | 135986
8 | 30:13.12 | 5:34.39 | 135987 | 161075
9 | 35:47.51 | 3:56.06 | 161076 | 178781
10 | 39:43.57 | 4:19.17 | 178782 | 198223

Характеристики диапазона извлечения и сообщения об ошибках

Выбранный диапазон

Имя файла C:\Users\ДОМ\Desktop\Judas Priest – Collections.wav

Пиковый уровень 97.7 %
Скорость извлечения 5.2 X
Качество диапазона 100.0 %
CRC копии 7681A92F
Копирование… OK

Ошибок не произошло

AccurateRip: сводка

Трек 1 точность не определена (достоверность 13) [6E96F744], AccurateRip вернул [F7FBE368] (AR v2)
Трек 2 точность не определена (достоверность 13) [1706EB54], AccurateRip вернул [79D4A331] (AR v2)
Трек 3 точность не определена (достоверность 13) [0911B67B], AccurateRip вернул [A61A894C] (AR v2)
Трек 4 точность не определена (достоверность 13) [5F979B19], AccurateRip вернул [C5CE9440] (AR v2)
Трек 5 точность не определена (достоверность 13) [90E37C30], AccurateRip вернул [38DD1685] (AR v2)
Трек 6 точность не определена (достоверность 13) [E877A096], AccurateRip вернул [DF208EC1] (AR v2)
Трек 7 точность не определена (достоверность 13) [559728A6], AccurateRip вернул [A89AB1EA] (AR v2)
Трек 8 точность не определена (достоверность 13) [26EC1199], AccurateRip вернул [11E3CFED] (AR v2)
Трек 9 точность не определена (достоверность 13) [AD0E9C7F], AccurateRip вернул [4014A1C9] (AR v2)
Трек 10 точность не определена (достоверность 13) [77459D01], AccurateRip вернул [E95DE5EE] (AR v2)

Ни один трек не прошёл проверки на точность
В вашей базе может быть иной вариант штамповки диска

Конец отчёта

—- CUETools DB Plugin V2.1.3

[CTDB TOCID: LNepAxIDR_StLdulZLjHbq5dQJs-] found, Submit result: LNepAxIDR_StLdulZLjHbq5dQJs- has been confirmed
[fa84469c] (19/20) Accurately ripped
[3a337a95] (01/20) No match

REM GENRE Metal
REM DATE 2008
REM DISCID 970A520A
REM COMMENT “ExactAudioCopy v1.0b3”
PERFORMER “Judas Priest”
TITLE “Collections”
FILE “Judas Priest – Collections.flac” WAVE
TRACK 01 AUDIO
TITLE “Breaking the Law”
PERFORMER “Judas Priest”
INDEX 01 00:00:00
TRACK 02 AUDIO
TITLE “Living After Midnight”
PERFORMER “Judas Priest”
INDEX 00 02:35:27
INDEX 01 02:36:05
TRACK 03 AUDIO
TITLE “Out in the Cold”
PERFORMER “Judas Priest”
INDEX 00 06:07:21
INDEX 01 06:07:38
TRACK 04 AUDIO
TITLE “Love Bites”
PERFORMER “Judas Priest”
INDEX 00 12:34:31
INDEX 01 12:35:39
TRACK 05 AUDIO
TITLE “Rock You All Around the World”
PERFORMER “Judas Priest”
INDEX 00 17:24:01
INDEX 01 17:25:10
TRACK 06 AUDIO
TITLE “Diamonds and Rust”
PERFORMER “Judas Priest”
INDEX 00 21:04:17
INDEX 01 21:05:30
TRACK 07 AUDIO
TITLE “Rock Hard, Live Free”
PERFORMER “Judas Priest”
INDEX 00 24:36:53
INDEX 01 24:37:41
TRACK 08 AUDIO
TITLE “Turbo Lover”
PERFORMER “Judas Priest”
INDEX 00 30:12:35
INDEX 01 30:13:12
TRACK 09 AUDIO
TITLE “Deal With the Devil”
PERFORMER “Judas Priest”
INDEX 00 35:46:44
INDEX 01 35:47:51
TRACK 10 AUDIO
TITLE “Worth Fighting For”
PERFORMER “Judas Priest”
INDEX 00 39:43:02
INDEX 01 39:43:57

Leave a Reply

Your email address will not be published. Required fields are marked *

This site uses Akismet to reduce spam. Learn how your comment data is processed.