Judas Priest – Angel of Retribution (Japanese Edition)




Artist: Judas Priest
Year: 2005
Genre: Metal
Notes: Discogs
Add. Notes: Japanese Edition
Cover incl.: Yes
Encoder: FLAC
Bitrate: ~800 kBit/s (44.1 kHz/16 Bit/s)
Log & Cue incl.: Yes
Size: 315,89 MB
Password: “slam” (without ” “)


All Downloads/Hosters are compatible

Download 1
Turbobit.net
Rapidgator.net
KatFile.com
UploadRar.com
UploadRive.com
Download 2
Turbobit.net
Rapidgator.net
KatFile.com
UploadRar.com
UploadRive.com

Tracklist:

1 - Judas Rising 
2 - Deal With The Devil 
3 - Revolution 
4 - Worth Fighting For 
5 - Demonizer 
6 - Wheels Of Fire 
7 - Angel 
8 - Hellrider 
9 - Eulogy 
10 - Lochness

EAC-Log, CUE-Sheed & NFO:

Click to open spoiler
REM COMMENT “Declipped, decompressed, equalized version”
REM GENRE “Heavy Metal”
REM DATE 2005
REM COMMENT “Released: 23 Feb 2005”
REM LABEL “Epic ‎– EICP-469”
REM FORMAT “CD, Album”
PERFORMER “Judas Priest”
TITLE “Angel of Retribution”
FILE “01. Judas Rising.flac” WAVE
TRACK 01 AUDIO
PERFORMER “Judas Priest”
TITLE “Judas Rising”
INDEX 01 00:00:00
FILE “02. Deal with the Devil.flac” WAVE
TRACK 02 AUDIO
PERFORMER “Judas Priest”
TITLE “Deal with the Devil”
INDEX 01 00:00:00
FILE “03. Revolution.flac” WAVE
TRACK 03 AUDIO
PERFORMER “Judas Priest”
TITLE “Revolution”
INDEX 01 00:00:00
FILE “04. Worth Fighting For.flac” WAVE
TRACK 04 AUDIO
PERFORMER “Judas Priest”
TITLE “Worth Fighting For”
INDEX 01 00:00:00
FILE “05. Demonizer.flac” WAVE
TRACK 05 AUDIO
PERFORMER “Judas Priest”
TITLE “Demonizer”
INDEX 01 00:00:00
FILE “06. Wheels of Fire.flac” WAVE
TRACK 06 AUDIO
PERFORMER “Judas Priest”
TITLE “Wheels of Fire”
INDEX 01 00:00:00
FILE “07. Angel.flac” WAVE
TRACK 07 AUDIO
PERFORMER “Judas Priest”
TITLE “Angel”
INDEX 01 00:00:00
FILE “08. Hellrider.flac” WAVE
TRACK 08 AUDIO
PERFORMER “Judas Priest”
TITLE “Hellrider”
INDEX 01 00:00:00
FILE “09. Eulogy.flac” WAVE
TRACK 09 AUDIO
PERFORMER “Judas Priest”
TITLE “Eulogy”
INDEX 01 00:00:00
FILE “10. Lochness.flac” WAVE
TRACK 10 AUDIO
PERFORMER “Judas Priest”
TITLE “Lochness”
INDEX 01 00:00:00

Leave a Reply

Your email address will not be published. Required fields are marked *

Enter the text from the image below
 

This site uses Akismet to reduce spam. Learn how your comment data is processed.