Jon Bon Jovi – Blaze Of Glory (Young Guns II)




Artist: Jon Bon Jovi
Year: 1990
Genre: Rock
Notes: Discogs
Add. Notes:
Cover incl.: No
Encoder: FLAC
Bitrate: ~1000 kBit/s (44.1 kHz/16 Bit/s)
Log & Cue incl.: Yes
Size: 316,99 MB
Password: “slam” (without ” “)


All Downloads/Hosters are compatible

Download 1
Turbobit.net
Rapidgator.net
UploadEver.com
JustUpload.io
UsersDrive.com
Download 2
Turbobit.net
Rapidgator.net
UploadEver.com
JustUpload.io
UsersDrive.com
Download 3
Turbobit.net
Rapidgator.net
UploadEver.com
JustUpload.io
UsersDrive.com

Tracklist:

1 - Billy Get Your Guns - 4:48
2 - Miracle - 5:08
3 - Blaze Of Glory - 5:44
4 - Blood Money - 2:34
5 - Santa Fe - 5:40
6 - Justice In The Barrel - 6:47
7 - Never Say Die - 4:53
8 - You Really Got Me Now - 2:23
9 - Bang A Drum - 4:36
10 - Dyin' Ain't Much Of A Livin' - 4:39
11 - Guano City - 1:00

EAC-Log, CUE-Sheed & NFO:

Click to open spoiler
Exact Audio Copy V1.0 beta 1 from 15. November 2010

EAC extraction logfile from 17. January 2011, 17:29

Jon Bon Jovi / Blaze Of Glory (Young Guns II)

Used drive : Optiarc BD ROM BC-5530H Adapter: 0 ID: 1

Read mode : Secure
Utilize accurate stream : Yes
Defeat audio cache : Yes
Make use of C2 pointers : No

Read offset correction : 48
Overread into Lead-In and Lead-Out : No
Fill up missing offset samples with silence : Yes
Delete leading and trailing silent blocks : No
Null samples used in CRC calculations : Yes
Used interface : Native Win32 interface for Win NT & 2000
Gap handling : Appended to previous track

Used output format : User Defined Encoder
Selected bitrate : 320 kBit/s
Quality : High
Add ID3 tag : No
Command line compressor : C:\Program Files (x86)\Exact Audio Copy\Flac\flac.exe
Additional command line options : -V -8 -T “artist=%a” -T “title=%t” -T “album=%g” -T “date=%y” -T “tracknumber=%n” -T “genre=%m” %s

TOC of the extracted CD

Track | Start | Length | Start sector | End sector
———————————————————
1 | 0:00.33 | 4:50.12 | 33 | 21794
2 | 4:50.45 | 5:09.13 | 21795 | 44982
3 | 9:59.58 | 5:45.37 | 44983 | 70894
4 | 15:45.20 | 2:34.70 | 70895 | 82514
5 | 18:20.15 | 5:41.50 | 82515 | 108139
6 | 24:01.65 | 6:49.38 | 108140 | 138852
7 | 30:51.28 | 4:54.00 | 138853 | 160902
8 | 35:45.28 | 2:24.55 | 160903 | 171757
9 | 38:10.08 | 4:36.60 | 171758 | 192517
10 | 42:46.68 | 4:46.57 | 192518 | 214024
11 | 47:33.50 | 1:15.30 | 214025 | 219679

Track 1

Filename C:\EAC Rips\Jon Bon Jovi – 1990 – Blaze Of Glory (Young Guns II) [FLAC]\01 – Billy Get Your Guns.wav

Pre-gap length 0:00:02.44

Peak level 100.0 %
Extraction speed 10.4 X
Track quality 100.0 %
Test CRC DAD62A28
Copy CRC DAD62A28
Accurately ripped (confidence 2) [9DA358BE]
Copy OK

Track 2

Filename C:\EAC Rips\Jon Bon Jovi – 1990 – Blaze Of Glory (Young Guns II) [FLAC]\02 – Miracle.wav

Pre-gap length 0:00:01.26

Peak level 100.0 %
Extraction speed 11.8 X
Track quality 100.0 %
Test CRC 3DD7D196
Copy CRC 3DD7D196
Accurately ripped (confidence 2) [0E9C02F7]
Copy OK

Track 3

Filename C:\EAC Rips\Jon Bon Jovi – 1990 – Blaze Of Glory (Young Guns II) [FLAC]\03 – Blaze Of Glory.wav

Pre-gap length 0:00:01.30

Peak level 100.0 %
Extraction speed 13.1 X
Track quality 100.0 %
Test CRC B6E565B7
Copy CRC B6E565B7
Accurately ripped (confidence 2) [3E500B1E]
Copy OK

Track 4

Filename C:\EAC Rips\Jon Bon Jovi – 1990 – Blaze Of Glory (Young Guns II) [FLAC]\04 – Blood Money.wav

Pre-gap length 0:00:01.02

Peak level 66.1 %
Extraction speed 12.8 X
Track quality 100.0 %
Test CRC 915D536B
Copy CRC 915D536B
Accurately ripped (confidence 2) [8B0600D2]
Copy OK

Track 5

Filename C:\EAC Rips\Jon Bon Jovi – 1990 – Blaze Of Glory (Young Guns II) [FLAC]\05 – Santa Fe.wav

Pre-gap length 0:00:01.13

Peak level 100.0 %
Extraction speed 12.8 X
Track quality 100.0 %
Test CRC 38949AC0
Copy CRC 38949AC0
Accurately ripped (confidence 2) [24663874]
Copy OK

Track 6

Filename C:\EAC Rips\Jon Bon Jovi – 1990 – Blaze Of Glory (Young Guns II) [FLAC]\06 – Justice In The Barrel.wav

Pre-gap length 0:00:01.42

Peak level 100.0 %
Extraction speed 15.9 X
Track quality 100.0 %
Test CRC 761508E3
Copy CRC 761508E3
Accurately ripped (confidence 2) [11313D60]
Copy OK

Track 7

Filename C:\EAC Rips\Jon Bon Jovi – 1990 – Blaze Of Glory (Young Guns II) [FLAC]\07 – Never Say Die.wav

Pre-gap length 0:00:01.86

Peak level 100.0 %
Extraction speed 16.4 X
Track quality 100.0 %
Test CRC BBF4B7D6
Copy CRC BBF4B7D6
Accurately ripped (confidence 2) [F50FE752]
Copy OK

Track 8

Filename C:\EAC Rips\Jon Bon Jovi – 1990 – Blaze Of Glory (Young Guns II) [FLAC]\08 – You Really Got Me Now.wav

Pre-gap length 0:00:01.50

Peak level 80.5 %
Extraction speed 13.2 X
Track quality 100.0 %
Test CRC 8CB1859F
Copy CRC 8CB1859F
Accurately ripped (confidence 2) [1D9E9699]
Copy OK

Track 9

Filename C:\EAC Rips\Jon Bon Jovi – 1990 – Blaze Of Glory (Young Guns II) [FLAC]\09 – Bang A Drum.wav

Pre-gap length 0:00:01.37

Peak level 100.0 %
Extraction speed 13.2 X
Track quality 100.0 %
Test CRC 48F464B9
Copy CRC 48F464B9
Accurately ripped (confidence 2) [8C1C91F6]
Copy OK

Track 10

Filename C:\EAC Rips\Jon Bon Jovi – 1990 – Blaze Of Glory (Young Guns II) [FLAC]\10 – Dyin’ Ain’t Much Of A Livin’.wav

Pre-gap length 0:00:00.60

Peak level 100.0 %
Extraction speed 18.0 X
Track quality 100.0 %
Test CRC 594ADD6A
Copy CRC 594ADD6A
Accurately ripped (confidence 2) [926E59E2]
Copy OK

Track 11

Filename C:\EAC Rips\Jon Bon Jovi – 1990 – Blaze Of Glory (Young Guns II) [FLAC]\11 – Guano City.wav

Pre-gap length 0:00:07.93

Peak level 90.4 %
Extraction speed 14.6 X
Track quality 99.8 %
Test CRC 8E890ECA
Copy CRC 8E890ECA
Accurately ripped (confidence 2) [2F977F8D]
Copy OK

All tracks accurately ripped

No errors occurred

End of status report

==== Log checksum 0F5D9E31DD7210CCE937DB9A44AF32AD92E826DC16D1BECAC2C81943E9CF571F ====

REM GENRE Soundtrack
REM DATE 1990
REM DISCID 910B710B
REM COMMENT “ExactAudioCopy v1.0b1”
FILE “01 – Billy Get Your Guns.wav” WAVE
TRACK 01 AUDIO
PREGAP 00:00:33
INDEX 01 00:00:00
TRACK 02 AUDIO
INDEX 00 04:48:67
FILE “02 – Miracle.wav” WAVE
INDEX 01 00:00:00
TRACK 03 AUDIO
INDEX 00 05:07:65
FILE “03 – Blaze Of Glory.wav” WAVE
INDEX 01 00:00:00
TRACK 04 AUDIO
INDEX 00 05:44:35
FILE “04 – Blood Money.wav” WAVE
INDEX 01 00:00:00
TRACK 05 AUDIO
INDEX 00 02:33:60
FILE “05 – Santa Fe.wav” WAVE
INDEX 01 00:00:00
TRACK 06 AUDIO
INDEX 00 05:40:18
FILE “06 – Justice In The Barrel.wav” WAVE
INDEX 01 00:00:00
TRACK 07 AUDIO
INDEX 00 06:47:48
FILE “07 – Never Say Die.wav” WAVE
INDEX 01 00:00:00
TRACK 08 AUDIO
INDEX 00 04:52:37
FILE “08 – You Really Got Me Now.wav” WAVE
INDEX 01 00:00:00
TRACK 09 AUDIO
INDEX 00 02:23:27
FILE “09 – Bang A Drum.wav” WAVE
INDEX 01 00:00:00
TRACK 10 AUDIO
INDEX 00 04:36:15
FILE “10 – Dyin’ Ain’t Much Of A Livin’.wav” WAVE
INDEX 01 00:00:00
TRACK 11 AUDIO
INDEX 00 04:38:62
FILE “11 – Guano City.wav” WAVE
INDEX 01 00:00:00

Leave a Reply

Your email address will not be published. Required fields are marked *

This site uses Akismet to reduce spam. Learn how your comment data is processed.