Iron Maiden – The Number Of The Beast (Japanese Edition)




[Total: 0    Average: 0/5]

Artist: Iron Maiden
Year: 1982/1986
Genre: Metal
Notes: Discogs
Add. Notes: Japanese Edition
Cover incl.: Yes
Encoder: FLAC
Bitrate: ~1000 kBit/s (44.1 kHz/16 Bit/s)
Log & Cue incl.: Yes
Size: 298,08 MB
Password: “slam” (without ” “)


All Downloads/Hosters are compatible

Download 1
Share-online.biz
KatFile.com
Rapidgator.net
NitroFlare.com
Download 2
Share-online.biz
KatFile.com
Rapidgator.net
NitroFlare.com

Tracklist:

1 - Invaders  - 3:24
2 - Children Of The Damned  - 4:35
3 - The Prisoner  - 6:03
4 - 22, Acacia Avenue  - 6:37
5 - The Number Of The Beast  - 4:51
6 - Run To The Hills  - 3:53
7 - Gangland  - 3:48
9 - Hallowed Be Thy Name  - 7:12

EAC-Log, CUE-Sheed & NFO:

Click to open spoiler
REM GENRE Heavy Metal
REM DATE 1982
PERFORMER “Iron Maiden”
TITLE “The Number Of The Beast”
FILE “The Number Of The Beast.flac” WAVE
TRACK 01 AUDIO
TITLE “Invaders”
INDEX 01 00:00:00
TRACK 02 AUDIO
TITLE “Children Of The Damned”
INDEX 01 03:23:00
TRACK 03 AUDIO
TITLE “The Prisoner”
INDEX 01 07:57:67
TRACK 04 AUDIO
TITLE “22, Acacia Avenue”
INDEX 01 13:59:67
TRACK 05 AUDIO
TITLE “The Number Of The Beast”
INDEX 01 20:36:15
TRACK 06 AUDIO
TITLE “Run To The Hills”
INDEX 01 25:26:67
TRACK 07 AUDIO
TITLE “Gangland”
INDEX 01 29:19:40
TRACK 08 AUDIO
TITLE “Hallowed Be Thy Name”
INDEX 01 33:08:15

Spread the Download

Leave a Reply

Your email address will not be published. Required fields are marked *

Enter the text from the image below
 

This site uses Akismet to reduce spam. Learn how your comment data is processed.