Insomnium – One for Sorrow




No Cover available


Artist: Insomnium
Year: 2011
Genre: Metal
Notes: Discogs
Add. Notes:
Watch Songs on: YouTube
Cover incl.: Yes
Encoder: FLAC
Bitrate: ~1100 kBit/s (44.1 kHz/16 Bit/s)
Log & Cue incl.: Yes/Yes
Size: 438,6 MB
Password: “slam” (without ” “)


All Downloads/Hosters are compatible

Download 1
KatFile.com
Turbobit.net
Rapidgator.net
FileFactory.com
Download 2
KatFile.com
Turbobit.net
Rapidgator.net
FileFactory.com

Tracklist:

1 Inertia 3:43
2 Through The Shadows 4:32
3 Song Of The Blackest Bird 7:29
4 Only One Who Waits 5:18
5 Unsung 5:04
6 Every Hour Wounds 5:24
7 Decoherence 3:18
8 Lay The Ghost To Rest 7:46
9 Regain The Fire 4:26
10 One For Sorrow 6:06

EAC-Log, CUE-Sheed & NFO:

Click to open spoiler
Exact Audio Copy V1.0 beta 2 from 29. April 2011

EAC extraction logfile from 13. October 2011, 23:30

Insomnium / One for Sorrow

Used drive : HL-DT-STDVDRAM GH20NS15 Adapter: 3 ID: 0

Read mode : Secure
Utilize accurate stream : Yes
Defeat audio cache : Yes
Make use of C2 pointers : No

Read offset correction : 667
Overread into Lead-In and Lead-Out : No
Fill up missing offset samples with silence : Yes
Delete leading and trailing silent blocks : No
Null samples used in CRC calculations : Yes
Used interface : Native Win32 interface for Win NT & 2000
Gap handling : Appended to previous track

Used output format : User Defined Encoder
Selected bitrate : 896 kBit/s
Quality : High
Add ID3 tag : No
Command line compressor : C:\Program Files (x86)\Exact Audio Copy\FLAC\FLAC.EXE
Additional command line options : -8 -V -T “ARTIST=%artist%” -T “TITLE=%title%” -T “ALBUM=%albumtitle%” -T “DATE=%year%” -T “TRACKNUMBER=%tracknr%” -T “GENRE=%genre%” -T “PERFORMER=%albuminterpret%” -T “COMPOSER=%composer%” %haslyrics%–tag-from-file=LYRICS

TOC of the extracted CD

Track | Start | Length | Start sector | End sector
———————————————————
1 | 0:00.00 | 3:43.02 | 0 | 16726
2 | 3:43.02 | 4:32.45 | 16727 | 37171
3 | 8:15.47 | 7:29.48 | 37172 | 70894
4 | 15:45.20 | 5:18.54 | 70895 | 94798
5 | 21:03.74 | 5:04.45 | 94799 | 117643
6 | 26:08.44 | 5:24.63 | 117644 | 142006
7 | 31:33.32 | 3:18.37 | 142007 | 156893
8 | 34:51.69 | 7:46.04 | 156894 | 191847
9 | 42:37.73 | 4:26.61 | 191848 | 211858
10 | 47:04.59 | 6:06.63 | 211859 | 239371
11 | 53:11.47 | 4:55.31 | 239372 | 261527

Track 1

Filename D:\Ripit\Insomnium – One for Sorrow (Limited Edition) (2011) [FLAC]\01 – Inertia.wav

Pre-gap length 0:00:02.00

Peak level 100.0 %
Extraction speed 4.4 X
Track quality 100.0 %
Test CRC 74F9F812
Copy CRC 74F9F812
Track not present in AccurateRip database
Copy OK

Track 2

Filename D:\Ripit\Insomnium – One for Sorrow (Limited Edition) (2011) [FLAC]\02 – Through the Shadows.wav

Peak level 99.9 %
Extraction speed 4.3 X
Track quality 99.9 %
Test CRC F10952F6
Copy CRC F10952F6
Track not present in AccurateRip database
Copy OK

Track 3

Filename D:\Ripit\Insomnium – One for Sorrow (Limited Edition) (2011) [FLAC]\03 – Song of the Blackest Bird.wav

Peak level 99.9 %
Extraction speed 6.1 X
Track quality 100.0 %
Test CRC EC9897E1
Copy CRC EC9897E1
Track not present in AccurateRip database
Copy OK

Track 4

Filename D:\Ripit\Insomnium – One for Sorrow (Limited Edition) (2011) [FLAC]\04 – Only One Who Waits.wav

Peak level 99.9 %
Extraction speed 5.6 X
Track quality 99.9 %
Test CRC 8BB8AB62
Copy CRC 8BB8AB62
Track not present in AccurateRip database
Copy OK

Track 5

Filename D:\Ripit\Insomnium – One for Sorrow (Limited Edition) (2011) [FLAC]\05 – Unsung.wav

Peak level 99.9 %
Extraction speed 7.0 X
Track quality 100.0 %
Test CRC ECDAB3D6
Copy CRC ECDAB3D6
Track not present in AccurateRip database
Copy OK

Track 6

Filename D:\Ripit\Insomnium – One for Sorrow (Limited Edition) (2011) [FLAC]\06 – Every Hour Wounds.wav

Peak level 99.9 %
Extraction speed 7.5 X
Track quality 100.0 %
Test CRC 8ECB99AD
Copy CRC 8ECB99AD
Track not present in AccurateRip database
Copy OK

Track 7

Filename D:\Ripit\Insomnium – One for Sorrow (Limited Edition) (2011) [FLAC]\07 – Decoherence.wav

Peak level 92.1 %
Extraction speed 7.1 X
Track quality 100.0 %
Test CRC 540F62C1
Copy CRC 540F62C1
Track not present in AccurateRip database
Copy OK

Track 8

Filename D:\Ripit\Insomnium – One for Sorrow (Limited Edition) (2011) [FLAC]\08 – Lay the Ghost to Rest.wav

Peak level 99.9 %
Extraction speed 8.3 X
Track quality 100.0 %
Test CRC 3DF5E228
Copy CRC 3DF5E228
Track not present in AccurateRip database
Copy OK

Track 9

Filename D:\Ripit\Insomnium – One for Sorrow (Limited Edition) (2011) [FLAC]\09 – Regain the Fire.wav

Peak level 99.9 %
Extraction speed 8.1 X
Track quality 100.0 %
Test CRC 2FAB6C93
Copy CRC 2FAB6C93
Track not present in AccurateRip database
Copy OK

Track 10

Filename D:\Ripit\Insomnium – One for Sorrow (Limited Edition) (2011) [FLAC]\10 – One for Sorrow.wav

Peak level 99.9 %
Extraction speed 7.7 X
Track quality 99.9 %
Test CRC 6915D6C7
Copy CRC 6915D6C7
Track not present in AccurateRip database
Copy OK

Track 11

Filename D:\Ripit\Insomnium – One for Sorrow (Limited Edition) (2011) [FLAC]\11 – Weather The Storm.wav

Peak level 99.9 %
Extraction speed 9.0 X
Track quality 100.0 %
Test CRC EE1049CB
Copy CRC EE1049CB
Track not present in AccurateRip database
Copy OK

None of the tracks are present in the AccurateRip database

No errors occurred

End of status report

==== Log checksum 1FA7E17BE37E1AC6D9DE5F114571D6A15E3EE70D3389066C17FB1C8FC3B26F4C ====

REM ACCURATERIPID 00178289-00cd99d5-aa0d9f0b
REM GENRE “Metal”
REM DATE 2011
REM DISCID AA0D9F0B
REM COMMENT “ExactAudioCopy v1.0b2”
PERFORMER “Insomnium”
TITLE “One for Sorrow”
REM DISCNUMBER 1
REM TOTALDISCS 1
FILE “01. Inertia.m4a” WAVE
TRACK 01 AUDIO
TITLE “Inertia”
PERFORMER “Insomnium”
ISRC US4E41173803
INDEX 01 00:00:00
FILE “02. Through the Shadows.m4a” WAVE
TRACK 02 AUDIO
TITLE “Through the Shadows”
PERFORMER “Insomnium”
ISRC US4E41173804
INDEX 01 00:00:00
FILE “03. Song of the Blackest Bird.m4a” WAVE
TRACK 03 AUDIO
TITLE “Song of the Blackest Bird”
PERFORMER “Insomnium”
ISRC US4E41173805
INDEX 01 00:00:00
FILE “04. Only One Who Waits.m4a” WAVE
TRACK 04 AUDIO
TITLE “Only One Who Waits”
PERFORMER “Insomnium”
ISRC US4E41173806
INDEX 01 00:00:00
FILE “05. Unsung.m4a” WAVE
TRACK 05 AUDIO
TITLE “Unsung”
PERFORMER “Insomnium”
ISRC US4E41173807
INDEX 01 00:00:00
FILE “06. Every Hour Wounds.m4a” WAVE
TRACK 06 AUDIO
TITLE “Every Hour Wounds”
PERFORMER “Insomnium”
ISRC US4E41173808
INDEX 01 00:00:00
FILE “07. Decoherence.m4a” WAVE
TRACK 07 AUDIO
TITLE “Decoherence”
PERFORMER “Insomnium”
ISRC US4E41173809
INDEX 01 00:00:00
FILE “08. Lay the Ghost to Rest.m4a” WAVE
TRACK 08 AUDIO
TITLE “Lay the Ghost to Rest”
PERFORMER “Insomnium”
ISRC US4E41173810
INDEX 01 00:00:00
FILE “09. Regain the Fire.m4a” WAVE
TRACK 09 AUDIO
TITLE “Regain the Fire”
PERFORMER “Insomnium”
ISRC US4E41173811
INDEX 01 00:00:00
FILE “10. One for Sorrow.m4a” WAVE
TRACK 10 AUDIO
TITLE “One for Sorrow”
PERFORMER “Insomnium”
ISRC US4E41173812
INDEX 01 00:00:00
FILE “11. Weather The Storm.m4a” WAVE
TRACK 11 AUDIO
TITLE “Weather The Storm”
PERFORMER “Insomnium”
ISRC US4E41173801
INDEX 01 00:00:00


Leave a Reply

Your email address will not be published. Required fields are marked *

Enter the text from the image below
 

This site uses Akismet to reduce spam. Learn how your comment data is processed.