In Extremo – Weckt Die Toten!




No Cover available

Artist: In Extremo
Year: 1998
Genre: Rock
Notes: Discogs
Add. Notes:
Watch Songs on: YouTube
Cover incl.: Yes
Encoder: ALAC
Bitrate: ~1000 kBit/s (44.1 kHz/16 Bit/s)
Log & Cue incl.: Yes
Size: 751,15 MB
Password: “slam” (without ” “)


All Downloads/Hosters are compatible

Download 1
KatFile.com
Turbobit.net
FileFactory.com
Rapidgator.net
Download 2
KatFile.com
Turbobit.net
FileFactory.com
Rapidgator.net

Tracklist:

1 - Ai Vis Lo Lop - 3:59
2 - Stella Splendens - 1:18
3 - Hiemali Tempore - 4:14
4 - Rotes Haar - 5:02
5 - Villeman Og Magnhild - 3:44
6 - Como Poden - 3:19
7 - Palästinalied - 5:19
8 - Vor Vollen Schüsseln - 3:32
9 - Maria Virgin - 4:56
10 - Totus Floreo - 3:37
11 - Der Galgen - 3:28
12 - Two Søstra - 2:32

EAC-Log, CUE-Sheed & NFO:

Click to open spoiler
Exact Audio Copy V1.0 beta 3 from 29. August 2011

Отчёт EAC об извлечении, выполненном 30. ноября
2014, 9:37

In Extremo / Weckt Die Toten!

Дисковод: Optiarc DVD RW AD-7200S Adapter: 1 ID: 0

Режим чтения : Достоверность
Использование точного потока : Да
Отключение кэша аудио : Да
Использование указателей C2 : Нет

Коррекция смещения при чтении : 48
Способность читать области Lead-in и Lead-out :
Нет
Заполнение пропущенных сэмплов тишиной :
Да
Удаление блоков с тишиной в начале и конце :
Нет
При вычислениях CRC использовались нулевые
сэмплы : Да
Интерфейс : Встроенный
Win32-интерфейс для Win NT/2000

Выходной формат : Пользовательский
кодировщик
Выбранный битрейт : 896 kBit/s
Качество : Высокий
Добавление ID3-тега : Нет
Утилита сжатия : D:\Program Files\EACPortable
\App\EAC\FLAC\flac.exe
Дополнительные параметры : -6 -V -T “ARTIST=%
artist%” -T “TITLE=%title%” -T “ALBUM=%
albumtitle%” -T “DATE=%year%” -T “TRACKNUMBER=%
tracknr%” -T “GENRE=%genre%” -T “COMMENT=%
comment%” %hascover%–picture=”%coverfile%”%
hascover% %source% -o %dest%

TOC извлечённого CD

Трек | Старт | Длительность | Начальный сектор
| Конечный сектор
——————————————————————

1 | 0:00.00 | 4:03.25 | 0 | 18249
2 | 4:03.25 | 1:18.44 | 18250 | 24143
3 | 5:21.69 | 4:18.21 | 24144 | 43514
4 | 9:40.15 | 5:04.68 | 43515 | 66382
5 | 14:45.08 | 3:47.06 | 66383 | 83413
6 | 18:32.14 | 3:21.64 | 83414 | 98552
7 | 21:54.03 | 5:22.54 | 98553 |
122756
8 | 27:16.57 | 3:36.15 | 122757 |
138971
9 | 30:52.72 | 4:59.26 | 138972 |
161422
10 | 35:52.23 | 3:40.47 | 161423 |
177969
11 | 39:32.70 | 3:33.28 | 177970 |
193972
12 | 43:06.23 | 2:32.37 | 193973 |
205409

Характеристики диапазона извлечения и сообщения
об ошибках

Выбранный диапазон

Имя файла C:\Users\Rohai\Desktop\Всё!\Рипы\In
Extremo – Weckt Die Toten!.wav

Пиковый уровень 97.7 %
Скорость извлечения 3.7 X
Качество диапазона 100.0 %
CRC теста CC7511DC
CRC копии CC7511DC
Копирование… OK

Ошибок не произошло

AccurateRip: сводка

Трек 1 : извлечено точно (доверие 17) [75A3FA43]
(AR v2)
Трек 2 : извлечено точно (доверие 17) [8361E9FA]
(AR v2)
Трек 3 : извлечено точно (доверие 17) [E2FC02DD]
(AR v2)
Трек 4 : извлечено точно (доверие 17) [7B65000E]
(AR v2)
Трек 5 : извлечено точно (доверие 17) [C743F365]
(AR v2)
Трек 6 : извлечено точно (доверие 17) [18DC987E]
(AR v2)
Трек 7 : извлечено точно (доверие 16) [CD3AD458]
(AR v2)
Трек 8 : извлечено точно (доверие 17) [7D3D36BE]
(AR v2)
Трек 9 : извлечено точно (доверие 17) [5088FF1A]
(AR v2)
Трек 10 : извлечено точно (доверие 17) [53CCC4A1]
(AR v2)
Трек 11 : извлечено точно (доверие 17) [D2A314C0]
(AR v2)
Трек 12 : извлечено точно (доверие 17) [0FEEE61E]
(AR v2)

Все треки извлечены точно

Конец отчёта

REM ACCURATERIPID 00145dec-00c061e5-a40ab20c
REM GENRE “Medieval Folk Metal”
REM DATE 1998
REM DISCID A40AB20C
PERFORMER “In Extremo”
TITLE “Weckt die Toten!”
CATALOG 0039841424621
REM DISCNUMBER 1
REM TOTALDISCS 1
FILE “01 – Ai vis lo lop.m4a” WAVE
TRACK 01 AUDIO
TITLE “Ai vis lo lop”
PERFORMER “In Extremo”
INDEX 01 00:00:00
TRACK 02 AUDIO
TITLE “Stella Splendens”
PERFORMER “In Extremo”
INDEX 00 03:59:55
FILE “02 – Stella Splendens.m4a” WAVE
INDEX 01 00:00:00
FILE “03 – Hiemali Tempore.m4a” WAVE
TRACK 03 AUDIO
TITLE “Hiemali Tempore”
PERFORMER “In Extremo”
INDEX 01 00:00:00
TRACK 04 AUDIO
TITLE “Rotes Haar”
PERFORMER “In Extremo”
INDEX 00 04:14:55
FILE “04 – Rotes Haar.m4a” WAVE
INDEX 01 00:00:00
TRACK 05 AUDIO
TITLE “Villeman og Magnhild”
PERFORMER “In Extremo”
INDEX 00 05:03:24
FILE “05 – Villeman og Magnhild.m4a” WAVE
INDEX 01 00:00:00
TRACK 06 AUDIO
TITLE “Como Poden”
PERFORMER “In Extremo”
INDEX 00 03:44:41
FILE “06 – Como Poden.m4a” WAVE
INDEX 01 00:00:00
TRACK 07 AUDIO
TITLE “Palästinalied”
PERFORMER “In Extremo”
INDEX 00 03:20:22
FILE “07 – Palästinalied.m4a” WAVE
INDEX 01 00:00:00
TRACK 08 AUDIO
TITLE “Vor vollen Schüsseln”
PERFORMER “In Extremo”
INDEX 00 05:20:11
FILE “08 – Vor vollen Schüsseln.m4a” WAVE
INDEX 01 00:00:00
TRACK 09 AUDIO
TITLE “Maria Virgin”
PERFORMER “In Extremo”
INDEX 00 03:32:51
FILE “09 – Maria Virgin.m4a” WAVE
INDEX 01 00:00:00
TRACK 10 AUDIO
TITLE “Totus floreo”
PERFORMER “In Extremo”
INDEX 00 04:56:58
FILE “10 – Totus floreo.m4a” WAVE
INDEX 01 00:00:00
TRACK 11 AUDIO
TITLE “Der Galgen”
PERFORMER “In Extremo”
INDEX 00 03:38:03
FILE “11 – Der Galgen.m4a” WAVE
INDEX 01 00:00:00
TRACK 12 AUDIO
TITLE “Two søstra”
PERFORMER “In Extremo”
INDEX 00 03:28:65
FILE “12 – Two søstra.m4a” WAVE
INDEX 01 00:00:00


Leave a Reply

Your email address will not be published. Required fields are marked *

This site uses Akismet to reduce spam. Learn how your comment data is processed.